За последнюю неделю опубликовано 29 новых материалов.
Инструкция новичку Путеводитель по форуму Прокси для Telegram Показать подсказки , это бомба!

Скачать Беглый огонь / Rapid Fire (1992) BDRip 1080p | D, Р, А бесплатно через торрент

  • Поучаствуй (в качестве покупателя) в любых пяти совместных покупках (кроме завершённых и "Моментальных") и получи группу "Новичок" навсегда -> ссылка на раздел
  • Получай до 480 рублей за каждого приглашенного пользователя!
    представляем Вам очередное расширение партнерской программы, подробности описаны тут -> ссылка
  • 90% материалов доступно к скачиванию после простой регистрации!
    Если же ты хочешь скачивать материалы без требования оставлять отзывы то получи группу "Новичок", 10 способов повышения описаны тут -> ссылка
  • К сожалению количество битых ссылок растет и мы уже не можем их оперативно восстанавливать поэтому просим помощи у каждого нашего пользователя.
    С сегодняшнего дня, за каждую восстановленную ссылку мы заплатим Вам.
    Подробнее тут -> ссылка
  • Перенесем твои заслуги с другого ресурса!
    Мы понимаем как сложно прокачивать аккаунты на форумах, вроде раскачал аккаунт, а тут появляется ресурс в 100 раз круче но тоже с системой прокачки и снова качать аккаунт...
    Предлагаем вам перенести Ваши заслуги на другом подобном ресурсе к нам.
    Подробности описаны тут -> ссылка
  • Вы можете получать по 2.5% с каждой покупки и продажи на маркете! Подробности в теме Партнёрская программа
Если Вы не хотите скачивать, Вы всегда можетепосмотретьонлайн, просто нажмите кнопку ниже :

Открыть плеер

Torrent_Bot

Торрент-Бот
Бот форума
4 Окт 2016
93
155
20
Информация о фильме
Название: Беглый огонь
Оригинальное название: Rapid Fire
Год выхода: 1992
Жанр: Боевик, триллер, драма, криминал
Режиссер: Дуайт Х. Литтл
В ролях: Брэндон Ли, Пауэрс Бут, Ник Манкузо, Рэймонд Дж. Бэрри, Кейт Ходж, Ци Ма, Тони Лонго, Майкл Пол Чан, Дастин Нгуен, Бриджитта Штенберг

О фильме:
Студент-байкер Джейк Ло становится свидетелем жестокого убийства. Не думая о том, кто стоит за спиной убийц, он соглашается свидетельствовать в суде, и тут же чьи-то люди под видом агентов ФБР пытаются убрать его. Едва ускользнув от лже-агентов, Джейк оказывается в центре ураганной схватки за его голову. ФБР, наркобароны, друзья, враги — все смешалось, и неизвестно, кто несет смерть, а кто — помощь. Здесь могут спасти только инстинкты. И инстинкт подсказывает, что единственный, кому можно верить — офицер полиции Райан. Но единственное, что может предложить Райан — сыграть подсадную утку в его охоте...



Страна: США
Студия: Twentieth Century Fox Film Corporation, Cinema Research Corporation
Продолжительность: 01:35:14
Перевод: Дублированный, профессиональный многоголосый, авторский

Файл
Кодек: x.264
Качество: BDRip 1080p | Rapid.Fire.1992.1080p.BluRay.x264-SADPANDA
Видео: MPEG-4 AVC, 1920x1040, 10.5 Mбит/с, 23.976 кадр/с
Аудио #1: Русский ( АС3, 2ch, 192 Кбит/с, 48.0 KHz) Профессиональный (дублированый) Киностудия им. Горького
Аудио #2: Русский ( АС3, 2ch, 192 Кбит/с, 48.0 KHz) Профессиональный (многоголосый, закадровый) R5
Аудио #3: Русский ( АС3, 2ch, 192 Кбит/с, 48.0 KHz) Профессиональный (многоголосый, закадровый) Первый канал
Аудио #4: Русский ( АС3, 2ch, 192 Кбит/с, 48.0 KHz) Авторский (одноголосый, закадровый) Андрей Гаврилов
Аудио #5: Английский ( АС3, 2ch, 224 Кбит/с, 48.0 KHz)
Субтитры: русские, английские
MediaInfo
Источник: Rapid.Fire.1992.1080p.BluRay.x264-SADPANDA
General
Unique ID : 249324107622772298352622253565508319518 (0xBB921393B939C9528EC020637017F91E)
Complete name : Rapid.Fire.1992.BDRip.1080p.mkv
Format : Matroska
Format version : Version 4 / Version 2
File size : 7.63 GiB
Duration : 1 h 35 min
Overall bit rate : 11.5 Mb/s
Encoded date : UTC 2018-08-29 10:59:10
Writing application : mkvmerge v7.1.0 ('Good Love') 64bit built on Jul 27 2014 13:06:55
Writing library : libebml v1.3.0 + libmatroska v1.4.1

Video
ID : 1
Format : AVC
Format/Info : Advanced Video Codec
Format profile : High@L4.1
Format settings : CABAC / 4 Ref Frames
Format settings, CABAC : Yes
Format settings, ReFrames : 4 frames
Codec ID : V_MPEG4/ISO/AVC
Duration : 1 h 35 min
Bit rate : 10.5 Mb/s
Width : 1 920 pixels
Height : 1 040 pixels
Display aspect ratio : 1.85:1
Frame rate mode : Constant
Frame rate : 23.976 (24000/1001) FPS
Color space : YUV
Chroma subsampling : 4:2:0
Bit depth : 8 bits
Scan type : Progressive
Bits/(Pixel*Frame) : 0.219
Stream size : 6.97 GiB (91%)
Writing library : x264 core 155 r2901 7d0ff22
Encoding settings : cabac=1 / ref=4 / deblock=1:-3:-3 / analyse=0x3:0x113 / me=umh / subme=8 / psy=1 / psy_rd=1.00:0.25 / mixed_ref=1 / me_range=24 / chroma_me=1 / trellis=1 / 8x8dct=1 / cqm=0 / deadzone=21,11 / fast_pskip=1 / chroma_qp_offset=-4 / threads=30 / lookahead_threads=5 / sliced_threads=0 / nr=0 / decimate=1 / interlaced=0 / bluray_compat=0 / constrained_intra=0 / bframes=3 / b_pyramid=2 / b_adapt=1 / b_bias=0 / direct=3 / weightb=1 / open_gop=0 / weightp=2 / keyint=240 / keyint_min=24 / scenecut=40 / intra_refresh=0 / rc_lookahead=50 / rc=2pass / mbtree=1 / bitrate=10483 / ratetol=1.0 / qcomp=0.60 / qpmin=0 / qpmax=69 / qpstep=4 / cplxblur=20.0 / qblur=0.5 / ip_ratio=1.40 / aq=1:0.75
Language : English
Default : Yes
Forced : No

Audio #1
ID : 2
Format : AC-3
Format/Info : Audio Coding 3
Commercial name : Dolby Digital
Codec ID : A_AC3
Duration : 1 h 35 min
Bit rate mode : Constant
Bit rate : 192 kb/s
Channel(s) : 2 channels
Channel layout : L R
Sampling rate : 48.0 kHz
Frame rate : 31.250 FPS (1536 SPF)
Bit depth : 16 bits
Compression mode : Lossy
Stream size : 131 MiB (2%)
Title : Дубляж, Киностудия им. Горького
Language : Russian
Service kind : Complete Main
Default : Yes
Forced : No

Audio #2
ID : 3
Format : AC-3
Format/Info : Audio Coding 3
Commercial name : Dolby Digital
Codec ID : A_AC3
Duration : 1 h 35 min
Bit rate mode : Constant
Bit rate : 192 kb/s
Channel(s) : 2 channels
Channel layout : L R
Sampling rate : 48.0 kHz
Frame rate : 31.250 FPS (1536 SPF)
Bit depth : 16 bits
Compression mode : Lossy
Stream size : 131 MiB (2%)
Title : Многоголосый закадровый, R5
Language : Russian
Service kind : Complete Main
Default : No
Forced : No

Audio #3
ID : 4
Format : AC-3
Format/Info : Audio Coding 3
Commercial name : Dolby Digital
Codec ID : A_AC3
Duration : 1 h 35 min
Bit rate mode : Constant
Bit rate : 192 kb/s
Channel(s) : 2 channels
Channel layout : L R
Sampling rate : 48.0 kHz
Frame rate : 31.250 FPS (1536 SPF)
Bit depth : 16 bits
Compression mode : Lossy
Stream size : 131 MiB (2%)
Title : Многоголосый закадровый, Первый канал
Language : Russian
Service kind : Complete Main
Default : No
Forced : No

Audio #4
ID : 5
Format : AC-3
Format/Info : Audio Coding 3
Commercial name : Dolby Digital
Codec ID : A_AC3
Duration : 1 h 35 min
Bit rate mode : Constant
Bit rate : 192 kb/s
Channel(s) : 2 channels
Channel layout : L R
Sampling rate : 48.0 kHz
Frame rate : 31.250 FPS (1536 SPF)
Bit depth : 16 bits
Compression mode : Lossy
Stream size : 131 MiB (2%)
Title : Одноголосый закадровый, А.Гаврилов
Language : Russian
Service kind : Complete Main
Default : No
Forced : No

Audio #5
ID : 6
Format : AC-3
Format/Info : Audio Coding 3
Commercial name : Dolby Digital
Codec ID : A_AC3
Duration : 1 h 35 min
Bit rate mode : Constant
Bit rate : 224 kb/s
Channel(s) : 2 channels
Channel layout : L R
Sampling rate : 48.0 kHz
Frame rate : 31.250 FPS (1536 SPF)
Bit depth : 16 bits
Compression mode : Lossy
Stream size : 153 MiB (2%)
Language : English
Service kind : Complete Main
Default : No
Forced : No

Text #1
ID : 7
Format : UTF-8
Codec ID : S_TEXT/UTF8
Codec ID/Info : UTF-8 Plain Text
Duration : 1 h 35 min
Bit rate : 60 b/s
Count of elements : 806
Stream size : 42.4 KiB (0%)
Language : Russian
Default : No
Forced : No

Text #2
ID : 8
Format : UTF-8
Codec ID : S_TEXT/UTF8
Codec ID/Info : UTF-8 Plain Text
Duration : 1 h 28 min
Bit rate : 42 b/s
Count of elements : 887
Stream size : 27.5 KiB (0%)
Language : English
Default : No
Forced : No

Menu
00:00:00.000 : en:00:00:00.000
00:03:51.982 : en:00:03:51.982
00:07:57.477 : en:00:07:57.477
00:11:59.093 : en:00:11:59.093
00:15:47.613 : en:00:15:47.613
00:20:51.792 : en:00:20:51.792
00:24:02.733 : en:00:24:02.733
00:26:50.901 : en:00:26:50.901
00:31:42.025 : en:00:31:42.025
00:37:58.610 : en:00:37:58.610
00:39:36.207 : en:00:39:36.207
00:43:45.456 : en:00:43:45.456
00:47:26.927 : en:00:47:26.927
00:50:03.751 : en:00:50:03.751
00:55:01.048 : en:00:55:01.048
01:00:34.881 : en:01:00:34.881
01:03:10.704 : en:01:03:10.704
01:07:32.048 : en:01:07:32.048
01:11:23.362 : en:01:11:23.362
01:15:33.070 : en:01:15:33.070
01:20:46.759 : en:01:20:46.759
01:23:49.900 : en:01:23:49.900
01:27:22.404 : en:01:27:22.404
01:30:50.570 : en:01:30:50.570
Скриншоты
 

Вложения

  • 20 KB Просмотры: 1
    Личеров 0
    Сидеров 0
    Файлов 1
    Объем 7,6 GB

Привет!

Мы группа людей которые решили помочь другим в решении их проблем, а так же пользователям с поиском самых свежих и качественных инфопродуктов. За 4 с небольшим месяца мы создали этот форум на который заходят ежедневно тысячи человек и посещаемость постоянно растёт. Мы создали панель лицензирования для защиты PHP скриптов от воровства и SEO панель для мониторинга наших сайтов и выбора верной стратегии их развития. Мы надеемся что то что мы создали пригодится Вам и возможно Вы поможете нам развиваться и совершенствоваться вместе с Вами.

Статистика форума

Темы
406.535
Сообщения
464.632
Пользователи
83.208
Новый пользователь
kingartur9719

Приложения форума для iOS и Android


У ркн там нет власти ;)
Приватные разговоры
Помощь Пользователи
    Вы не присоединились ни к одной комнате.