За последнюю неделю опубликовано 38 новых материалов.
Инструкция новичку Путеводитель по форуму Прокси для Telegram Показать подсказки , это бомба!

Скачать Беги в этой гонке / Run the Race (2018) WEB-DL 1080p от OlLanDGroup | P бесплатно через торрент

  • Поучаствуй (в качестве покупателя) в любых пяти совместных покупках (кроме завершённых и "Моментальных") и получи группу "Новичок" навсегда -> ссылка на раздел
  • Получай до 480 рублей за каждого приглашенного пользователя!
    представляем Вам очередное расширение партнерской программы, подробности описаны тут -> ссылка
  • 90% материалов доступно к скачиванию после простой регистрации!
    Если же ты хочешь скачивать материалы без требования оставлять отзывы то получи группу "Новичок", 10 способов повышения описаны тут -> ссылка
  • К сожалению количество битых ссылок растет и мы уже не можем их оперативно восстанавливать поэтому просим помощи у каждого нашего пользователя.
    С сегодняшнего дня, за каждую восстановленную ссылку мы заплатим Вам.
    Подробнее тут -> ссылка
  • Перенесем твои заслуги с другого ресурса!
    Мы понимаем как сложно прокачивать аккаунты на форумах, вроде раскачал аккаунт, а тут появляется ресурс в 100 раз круче но тоже с системой прокачки и снова качать аккаунт...
    Предлагаем вам перенести Ваши заслуги на другом подобном ресурсе к нам.
    Подробности описаны тут -> ссылка
  • Вы можете получать по 2.5% с каждой покупки и продажи на маркете! Подробности в теме Партнёрская программа
Если Вы не хотите скачивать, Вы всегда можетепосмотретьонлайн, просто нажмите кнопку ниже :

Открыть плеер

Torrent_Bot

Торрент-Бот
Бот форума
4 Окт 2016
93
160
20







Год выпуска: 2018
Страна: США
Производство: Reserve Entertainment
Жанр: Драма, спорт


Режиссёр: Крис Даулинг
В ролях: Майкелти Уильямсон, Фрэнсис Фишер, Кристоффер Полаха, Тэннер Стайн, Ивэн Хофер, Келси Рейнхарт, Марио Ван Пиблз, Калеб Кастилло, Эдди Джордж, Тим Тебоу


Перевод: Профессиональный многоголосый | [HDRezka Studio]
Субтитры: Английские
Реклама: Отсутствует

Описание: Встряхнувшись после смерти своей матери и оставления отца, Зак, общегосударственный спортсмен, находит славу на футбольном поле, работая над тем, чтобы заработать стипендию для колледжа и билет братьев за город. Когда из-за разрушительной травмы Зак и его мечты оказываются в стороне, Дэвид зашнуровывает свои трековые путы, чтобы спасти их будущее и увести Зака к надежде.




Качество: WEB-DL 1080p | iTunes Version |
Продолжительность: 01:42:27

Формат: MKV
Видео кодек: MPEG-4 AVC
Аудио кодек: AC3
Видео: 1916x1032 (1.85:1), 23,976 fps, x264 ~5 171 kbps avg, 0.109 bit/pixel
Аудио #1: 48 kHz, AC3 Dolby Digital, 2 (L,R) ch, ~192.00 kbps avg | RUS (HDRezka Studio)
Аудио #2: 48 kHz, AC3 Dolby Digital, 3/2 (L,C,R,l,r) + LFE ch, ~384.00 kbps avg | ENG


Дата премьеры (мир): 22 февраля 2019
Дата премьеры (РФ):
Цифровой релиз:


Релиз от:

MediaInfo
Общее
Уникальный идентификатор : 130620741130676534759248731099242059515 (0x6244A3C16C7B7906627C00CFCE2656FB)
Полное имя : F:OlLanDGroupRun.the.Race.2019.WEB-DL(1080p).OllanDGroup.mkv
Формат : Matroska
Версия формата : Version 4 / Version 2
Размер файла : 4,11 Гбайт
Продолжительность : 1 ч. 42 м.
Общий поток : 5749 Кбит/сек
Название фильма : Run.the.Race.2019 #TorpedoUK#
Дата кодирования : UTC 2019-05-28 10:52:39
Программа кодирования : mkvmerge v29.0.0 ('Like It Or Not') 64-bit
Библиотека кодирования : libebml v1.3.6 + libmatroska v1.4.9

Видео
Идентификатор : 1
Формат : AVC
Формат/Информация : Advanced Video Codec
Профиль формата : [email protected]
Параметр CABAC формата : Да
Параметр ReFrames формата : 4 кадра
Идентификатор кодека : V_MPEG4/ISO/AVC
Продолжительность : 1 ч. 42 м.
Битрейт : 5171 Кбит/сек
Ширина : 1916 пикселей
Высота : 1032 пикселя
Соотношение сторон : 1,85:1
Режим частоты кадров : Постоянный
Частота кадров : 23,976 кадра/сек
Цветовое пространство : YUV
Субдискретизация насыщенности : 4:2:0
Битовая глубина : 8 бит
Тип развёртки : Прогрессивная
Бит/(Пиксели*Кадры) : 0.109
Размер потока : 3,70 Гбайт (90%)
Заголовок : Run.the.Race.2019.1080p.WEB-DL.DD5.1.H264-FGT
Язык : English
Default : Да
Forced : Нет
Цветовой диапазон : Limited
Основные цвета : BT.709
Характеристики трансфера : BT.709
Коэффициенты матрицы : BT.709

Аудио #1
Идентификатор : 2
Формат : AC-3
Формат/Информация : Audio Coding 3
Расширение режима : CM (complete main)
Параметр Endianness формата : Big
Идентификатор кодека : A_AC3
Продолжительность : 1 ч. 42 м.
Вид битрейта : Постоянный
Битрейт : 192 Кбит/сек
Каналы : 2 канала
Расположение каналов : Front: L R
Частота : 48,0 КГц
Частота кадров : 31,250 кадров/сек (1536 spf)
Битовая глубина : 16 бит
Метод сжатия : С потерями
Задержка видео : -42 мс.
Размер потока : 141 Мбайт (3%)
Заголовок : MVO [HDRezka Studio]
Язык : Russian
Default : Да
Forced : Нет

Аудио #2
Идентификатор : 3
Формат : AC-3
Формат/Информация : Audio Coding 3
Расширение режима : CM (complete main)
Параметр Endianness формата : Big
Идентификатор кодека : A_AC3
Продолжительность : 1 ч. 42 м.
Вид битрейта : Постоянный
Битрейт : 384 Кбит/сек
Каналы : 6 каналов
Расположение каналов : Front: L C R, Side: L R, LFE
Частота : 48,0 КГц
Частота кадров : 31,250 кадров/сек (1536 spf)
Битовая глубина : 16 бит
Метод сжатия : С потерями
Задержка видео : -42 мс.
Размер потока : 281 Мбайт (7%)
Заголовок : [Original]
Язык : English
Default : Нет
Forced : Нет

Текст
Идентификатор : 4
Формат : UTF-8
Идентификатор кодека : S_TEXT/UTF8
Идентификатор кодека/Информация : UTF-8 Plain Text
Продолжительность : 1 ч. 36 м.
Битрейт : 62 бит/сек
Count of elements : 1193
Размер потока : 44,0 Кбайт (0%)
Заголовок : Full
Язык : English
Default : Нет
Forced : Нет

Меню
00:00:00.000 : en:1
00:05:41.675 : en:2
00:10:49.982 : en:3
00:14:05.635 : en:4
00:18:49.835 : en:5
00:25:57.554 : en:6
00:31:35.808 : en:7
00:35:55.567 : en:8
00:39:53.096 : en:9
00:44:36.378 : en:10
00:50:40.200 : en:11
00:55:46.129 : en:12
01:01:51.911 : en:13
01:04:18.349 : en:14
01:10:09.575 : en:15
01:14:36.090 : en:16
01:19:23.252 : en:17
01:26:08.781 : en:18
01:31:32.479 : en:19
01:36:18.388 : en:20
Скриншоты


 

Вложения

  • 21,5 KB Просмотры: 1
    Личеров 0
    Сидеров 0
    Файлов 1
    Объем 4,1 GB

Привет!

Мы группа людей которые решили помочь другим в решении их проблем, а так же пользователям с поиском самых свежих и качественных инфопродуктов. За 4 с небольшим месяца мы создали этот форум на который заходят ежедневно тысячи человек и посещаемость постоянно растёт. Мы создали панель лицензирования для защиты PHP скриптов от воровства и SEO панель для мониторинга наших сайтов и выбора верной стратегии их развития. Мы надеемся что то что мы создали пригодится Вам и возможно Вы поможете нам развиваться и совершенствоваться вместе с Вами.

Статистика форума

Темы
406.605
Сообщения
465.006
Пользователи
84.313
Новый пользователь
сергей21212

Приложения форума для iOS и Android


У ркн там нет власти ;)
Приватные разговоры
Помощь Пользователи
    Вы не присоединились ни к одной комнате.