За последнюю неделю опубликовано 84 новых материалов.
Инструкция новичку Путеводитель по форуму Прокси для Telegram Показать подсказки , это бомба!

Скачать Баунти / The Bounty (1984) BDRip 720p | P бесплатно через торрент

  • Поучаствуй (в качестве покупателя) в любых пяти совместных покупках (кроме завершённых и "Моментальных") и получи группу "Новичок" навсегда -> ссылка на раздел
  • Получай до 480 рублей за каждого приглашенного пользователя!
    представляем Вам очередное расширение партнерской программы, подробности описаны тут -> ссылка
  • 90% материалов доступно к скачиванию после простой регистрации!
    Если же ты хочешь скачивать материалы без требования оставлять отзывы то получи группу "Новичок", 10 способов повышения описаны тут -> ссылка
  • К сожалению количество битых ссылок растет и мы уже не можем их оперативно восстанавливать поэтому просим помощи у каждого нашего пользователя.
    С сегодняшнего дня, за каждую восстановленную ссылку мы заплатим Вам.
    Подробнее тут -> ссылка
  • Перенесем твои заслуги с другого ресурса!
    Мы понимаем как сложно прокачивать аккаунты на форумах, вроде раскачал аккаунт, а тут появляется ресурс в 100 раз круче но тоже с системой прокачки и снова качать аккаунт...
    Предлагаем вам перенести Ваши заслуги на другом подобном ресурсе к нам.
    Подробности описаны тут -> ссылка
  • Вы можете получать по 2.5% с каждой покупки и продажи на маркете! Подробности в теме Партнёрская программа
Если Вы не хотите скачивать, Вы всегда можетепосмотретьонлайн, просто нажмите кнопку ниже :

Открыть плеер

Torrent_Bot

Торрент-Бот
Бот форума
4 Окт 2016
104
152
20



Информация о фильме
Название:Баунти
Оригинальное:The Bounty
Год выхода:1984
Выпущено:Bounty Productions Ltd., Dino De Laurentiis Productions
Страна:Великобритания, США
Жанр:Боевик, драма, приключения, история
Продолжительность:02:12:48
Перевод:Профессиональный (многоголосый, закадровый) "R5"
Режиссер:Роджер Дональдсон
В ролях:Мэл Гибсон, Энтони Хопкинс, Лоуренс Оливье, Эдвард Фокс, Дэниэл Дэй-Льюис, Бернард Хилл, Филип Дэвис, Лиам Нисон, Ви Куки Каа, Филип Мартин Браун, Саймон Чэндлер, Малколм Террис



Сюжет фильма
Бесконечно опасные плавания приводили отважных моряков к райским островам, и часто никакая кара не могла заставить опьяненных раем людей отправиться в обратный путь, навстречу новым ужасам. Это случилось в 1789 году: фрегат «Баунти» возвращался с Таити с грузом хлебного дерева, когда ссора между капитаном и его лучшим другом расколола команду надвое. Вспыхнул мятеж...

Файл
Кодек:x264
Формат:MKV
Качество:BDRip 720p(Источник: Blu-ray)
Видео:MPEG-4 AVC1280x546 pix, 23.976 fps, 5316 kbps, 0.317 Bits/Pixel
Аудио I:Dolby Digital5.1 ch, 48 kHz, 448 kbps(Rus)
Аудио II:Dolby Digital5.1 ch, 48 kHz, 448 kbps(Eng)
Субтитры:SRTРусские, Английские
Меню:Сохранены оригинальные чаптерыBlu-ray
MI & x264
x264 [info]: frame I:1239 Avg QP:17.00 size:115583
x264 [info]: frame P:35727 Avg QP:20.00 size: 49131
x264 [info]: frame B:154074 Avg QP:21.38 size: 22038
x264 [info]: consecutive B-frames: 1.0% 0.6% 3.7% 19.0% 15.6% 41.4% 5.7% 2.3% 2.6% 1.8% 2.0% 1.3% 0.7% 2.4%
General
Unique ID : 193632263147707496168552379888210069095 (0x91AC37A62FE5BBBC9638B67EB474C667)
Format : Matroska
Format version : Version 2
File size : 5.76 GiB
Duration : 2h 12mn
Overall bit rate : 6 213 Kbps
Movie name : Баунти (1984) BDRip (720p)
Encoded date : UTC 2015-05-22 20:44:50
Writing application : mkvmerge v5.8.0 ('No Sleep / Pillow') built on Sep 2 2012 15:37:04
Writing library : libebml v1.2.3 + libmatroska v1.3.0

Video
ID : 1
Format : AVC
Format/Info : Advanced Video Codec
Format profile : High@L4.1
Format settings, CABAC : Yes
Format settings, ReFrames : 9 frames
Codec ID : V_MPEG4/ISO/AVC
Duration : 2h 12mn
Bit rate : 5 316 Kbps
Width : 1 280 pixels
Height : 546 pixels
Display aspect ratio : 2.35:1
Frame rate mode : Constant
Frame rate : 23.976 fps
Color space : YUV
Chroma subsampling : 4:2:0
Bit depth : 8 bits
Scan type : Progressive
Bits/(Pixel*Frame) : 0.317
Stream size : 4.82 GiB (84%)
Title : Release by Alex260680
Writing library : x264 core 146 r2538 121396c
Encoding settings : cabac=1 / ref=9 / deblock=1:-3:-3 / analyse=0x3:0x133 / me=umh / subme=11 / psy=1 / psy_rd=1.00:0.10 / mixed_ref=1 / me_range=32 / chroma_me=1 / trellis=2 / 8x8dct=1 / cqm=0 / deadzone=21,11 / fast_pskip=0 / chroma_qp_offset=-3 / threads=6 / lookahead_threads=1 / sliced_threads=0 / nr=0 / decimate=0 / interlaced=0 / bluray_compat=0 / constrained_intra=0 / bframes=13 / b_pyramid=2 / b_adapt=2 / b_bias=0 / direct=3 / weightb=1 / open_gop=0 / weightp=2 / keyint=240 / keyint_min=23 / scenecut=40 / intra_refresh=0 / rc=full2pass / mbtree=0 / bitrate=5316 / ratetol=1.0 / qcomp=0.60 / qpmin=0 / qpmax=69 / qpstep=4 / cplxblur=20.0 / qblur=0.5 / ip_ratio=1.40 / pb_ratio=1.30 / aq=1:0.90
Language : English
Default : Yes
Forced : No

Audio #1
ID : 2
Format : AC-3
Format/Info : Audio Coding 3
Mode extension : CM (complete main)
Format settings, Endianness : Big
Codec ID : A_AC3
Duration : 2h 12mn
Bit rate mode : Constant
Bit rate : 448 Kbps
Channel(s) : 6 channels
Channel positions : Front: L C R, Side: L R, LFE
Sampling rate : 48.0 KHz
Bit depth : 16 bits
Compression mode : Lossy
Stream size : 426 MiB (7%)
Title : MVO (R5)
Language : Russian
Default : Yes
Forced : No

Audio #2
ID : 3
Format : AC-3
Format/Info : Audio Coding 3
Mode extension : CM (complete main)
Format settings, Endianness : Big
Codec ID : A_AC3
Duration : 2h 12mn
Bit rate mode : Constant
Bit rate : 448 Kbps
Channel(s) : 6 channels
Channel positions : Front: L C R, Side: L R, LFE
Sampling rate : 48.0 KHz
Bit depth : 16 bits
Compression mode : Lossy
Stream size : 426 MiB (7%)
Title : Original
Language : English
Default : No
Forced : No

Text #1
ID : 4
Format : UTF-8
Codec ID : S_TEXT/UTF8
Codec ID/Info : UTF-8 Plain Text
Title : Full
Language : Russian
Default : No
Forced : No

Text #2
ID : 5
Format : UTF-8
Codec ID : S_TEXT/UTF8
Codec ID/Info : UTF-8 Plain Text
Title : SDH
Language : English
Default : No
Forced : No

Menu
00:00:00.000 : en:Chapter 01
00:05:38.922 : en:Chapter 02
00:10:28.211 : en:Chapter 03
00:16:49.508 : en:Chapter 04
00:21:42.051 : en:Chapter 05
00:25:44.293 : en:Chapter 06
00:34:26.773 : en:Chapter 07
00:37:15.275 : en:Chapter 08
00:44:08.771 : en:Chapter 09
00:48:58.894 : en:Chapter 10
00:54:18.172 : en:Chapter 11
01:01:38.987 : en:Chapter 12
01:05:37.600 : en:Chapter 13
01:11:25.323 : en:Chapter 14
01:18:12.438 : en:Chapter 15
01:22:50.007 : en:Chapter 16
01:28:08.116 : en:Chapter 17
01:33:33.149 : en:Chapter 18
01:39:59.368 : en:Chapter 19
01:43:43.592 : en:Chapter 20
01:50:29.456 : en:Chapter 21
01:55:50.068 : en:Chapter 22
02:00:39.023 : en:Chapter 23
02:07:48.369 : en:Chapter 24
 

Вложения

  • 15,6 KB Просмотры: 1
    Личеров 0
    Сидеров 0
    Файлов 1
    Объем 5,8 GB

Привет!

Мы группа людей которые решили помочь другим в решении их проблем, а так же пользователям с поиском самых свежих и качественных инфопродуктов. За 4 с небольшим месяца мы создали этот форум на который заходят ежедневно тысячи человек и посещаемость постоянно растёт. Мы создали панель лицензирования для защиты PHP скриптов от воровства и SEO панель для мониторинга наших сайтов и выбора верной стратегии их развития. Мы надеемся что то что мы создали пригодится Вам и возможно Вы поможете нам развиваться и совершенствоваться вместе с Вами.

Статистика форума

Темы
404.550
Сообщения
461.466
Пользователи
80.111
Новый пользователь
dapohui

Приложения форума для iOS и Android


У ркн там нет власти ;)
Приватные разговоры
Помощь Пользователи
    Вы не присоединились ни к одной комнате.