За последнюю неделю опубликовано 35 новых материалов.
Инструкция новичку Путеводитель по форуму Прокси для Telegram Показать подсказки , это бомба!

Скачать Батюшка (Batushka) - Панихида (2019) FLAC бесплатно через торрент

  • Поучаствуй (в качестве покупателя) в любых пяти совместных покупках (кроме завершённых и "Моментальных") и получи группу "Новичок" навсегда -> ссылка на раздел
  • Получай до 480 рублей за каждого приглашенного пользователя!
    представляем Вам очередное расширение партнерской программы, подробности описаны тут -> ссылка
  • 90% материалов доступно к скачиванию после простой регистрации!
    Если же ты хочешь скачивать материалы без требования оставлять отзывы то получи группу "Новичок", 10 способов повышения описаны тут -> ссылка
  • К сожалению количество битых ссылок растет и мы уже не можем их оперативно восстанавливать поэтому просим помощи у каждого нашего пользователя.
    С сегодняшнего дня, за каждую восстановленную ссылку мы заплатим Вам.
    Подробнее тут -> ссылка
  • Перенесем твои заслуги с другого ресурса!
    Мы понимаем как сложно прокачивать аккаунты на форумах, вроде раскачал аккаунт, а тут появляется ресурс в 100 раз круче но тоже с системой прокачки и снова качать аккаунт...
    Предлагаем вам перенести Ваши заслуги на другом подобном ресурсе к нам.
    Подробности описаны тут -> ссылка
  • Вы можете получать по 2.5% с каждой покупки и продажи на маркете! Подробности в теме Партнёрская программа

Torrent_Bot

Торрент-Бот
Бот форума
4 Окт 2016
90
168
20



Исполнитель: Батюшка
Название: Панихида
Страна: Poland
Жанр: Black-Metal
Год: 2019
Продолжительность: 00:42:15
Битрейт аудио: Lossless
Формат/Кодек: FLAC
Тип рипа: tracks


01. Песнь 1
02. Песнь 2
03. Песнь 3
04. Песнь 4
05. Песнь 5
06. Песнь 6
07. Песнь 7
08. Песнь 8
Лог проверки качества
AUDIOCHECKER v2.0 beta (build 457) - by Dester - [email protected]
~~~~~~~~~~~~~~~~~~~~~~~~~~~~~~~~~~

Started at: вторник, 28. 05. 2019. - 17:01.03
8 files found

1 -===- C:UsersUserDownloadsБатюшка - Панихида -2019 flac�1 - Песнь 1.flac
Extracted successfully
Conclusion: this track is CDDA with probability 99%
Tempfile successfully deleted.

2 -===- C:UsersUserDownloadsБатюшка - Панихида -2019 flac�2 - Песнь 2.flac
Extracted successfully
Conclusion: this track is CDDA with probability 100%
Tempfile successfully deleted.

3 -===- C:UsersUserDownloadsБатюшка - Панихида -2019 flac�3 - Песнь 3.flac
Extracted successfully
Conclusion: this track is CDDA with probability 100%
Tempfile successfully deleted.

4 -===- C:UsersUserDownloadsБатюшка - Панихида -2019 flac�4 - Песнь 4.flac
Extracted successfully
Conclusion: this track is CDDA with probability 100%
Tempfile successfully deleted.

5 -===- C:UsersUserDownloadsБатюшка - Панихида -2019 flac�5 - Песнь 5.flac
Extracted successfully
Conclusion: this track is CDDA with probability 99%
Tempfile successfully deleted.

6 -===- C:UsersUserDownloadsБатюшка - Панихида -2019 flac�6 - Песнь 6.flac
Extracted successfully
Conclusion: this track is CDDA with probability 100%
Tempfile successfully deleted.

7 -===- C:UsersUserDownloadsБатюшка - Панихида -2019 flac�7 - Песнь 7.flac
Extracted successfully
Conclusion: this track is CDDA with probability 100%
Tempfile successfully deleted.

8 -===- C:UsersUserDownloadsБатюшка - Панихида -2019 flac�8 - Песнь 8.flac
Extracted successfully
Conclusion: this track is CDDA with probability 100%
Tempfile successfully deleted.


Finished at: вторник, 28. 05. 2019. - 17:02.40 (operation time: 0:01.37)
DR
foobar2000 1.4.4 / Замер динамического диапазона (DR) 1.1.1
Дата отчёта: 2019-05-28 17:01:13

--------------------------------------------------------------------------------
Анализ: Батюшка / Панихида
--------------------------------------------------------------------------------

DR Пики RMS Продолжительность трека
--------------------------------------------------------------------------------
DR7 -0.76 дБ -10.05 дБ 4:09 01-Песнь 1
DR7 -1.30 дБ -9.93 дБ 7:36 02-Песнь 2
DR7 -1.35 дБ -9.81 дБ 4:39 03-Песнь 3
DR7 -1.33 дБ -9.16 дБ 4:42 04-Песнь 4
DR7 -1.34 дБ -9.32 дБ 5:35 05-Песнь 5
DR7 -1.53 дБ -9.27 дБ 5:18 06-Песнь 6
DR7 -1.37 дБ -9.30 дБ 3:55 07-Песнь 7
DR7 -1.45 дБ -9.51 дБ 6:20 08-Песнь 8
--------------------------------------------------------------------------------

Количество треков: 8
Реальные значения DR: DR7

Частота: 44100 Гц
Каналов: 2
Разрядность: 16
Битрейт: 966 кбит/с
Кодек: FLAC
================================================================================
 

Вложения

  • 12,9 KB Просмотры: 1
    Личеров 0
    Сидеров 0
    Файлов 10
    Объем 295,9 MB

Привет!

Мы группа людей которые решили помочь другим в решении их проблем, а так же пользователям с поиском самых свежих и качественных инфопродуктов. За 4 с небольшим месяца мы создали этот форум на который заходят ежедневно тысячи человек и посещаемость постоянно растёт. Мы создали панель лицензирования для защиты PHP скриптов от воровства и SEO панель для мониторинга наших сайтов и выбора верной стратегии их развития. Мы надеемся что то что мы создали пригодится Вам и возможно Вы поможете нам развиваться и совершенствоваться вместе с Вами.

Статистика форума

Темы
410.952
Сообщения
469.384
Пользователи
88.420
Новый пользователь
Grimoar

Приложения форума для iOS и Android


У ркн там нет власти ;)
Приватные разговоры
Помощь Пользователи
    Вы не присоединились ни к одной комнате.