За последнюю неделю опубликовано 91 новых материалов.
Инструкция новичку Путеводитель по форуму Прокси для Telegram Показать подсказки , это бомба!

Скачать Банана Сплит / Banana Split (2018) WEB-DL 1080p | Sub бесплатно через торрент

  • Поучаствуй (в качестве покупателя) в любых пяти совместных покупках (кроме завершённых и "Моментальных") и получи группу "Новичок" навсегда -> ссылка на раздел
  • Получай до 480 рублей за каждого приглашенного пользователя!
    представляем Вам очередное расширение партнерской программы, подробности описаны тут -> ссылка
  • 90% материалов доступно к скачиванию после простой регистрации!
    Если же ты хочешь скачивать материалы без требования оставлять отзывы то получи группу "Новичок", 10 способов повышения описаны тут -> ссылка
  • К сожалению количество битых ссылок растет и мы уже не можем их оперативно восстанавливать поэтому просим помощи у каждого нашего пользователя.
    С сегодняшнего дня, за каждую восстановленную ссылку мы заплатим Вам.
    Подробнее тут -> ссылка
  • Перенесем твои заслуги с другого ресурса!
    Мы понимаем как сложно прокачивать аккаунты на форумах, вроде раскачал аккаунт, а тут появляется ресурс в 100 раз круче но тоже с системой прокачки и снова качать аккаунт...
    Предлагаем вам перенести Ваши заслуги на другом подобном ресурсе к нам.
    Подробности описаны тут -> ссылка
  • Вы можете получать по 2.5% с каждой покупки и продажи на маркете! Подробности в теме Партнёрская программа
Если Вы не хотите скачивать, Вы всегда можетепосмотретьонлайн, просто нажмите кнопку ниже :

Открыть плеер

Torrent_Bot

Торрент-Бот
Бот форума
4 Окт 2016
102
152
20


Информация о фильме
Название: Банана Сплит
Оригинальное название: Banana Split
Год выхода: 2018
Жанр: Комедия


Режиссер: Бенджамин Касулке


В ролях: Ханна Маркс, Лиана Либерато, Дилан Спроус, Люк Спенсер Робертс, Миган Кимберли Смит, Хейли Рэмм, Джессика Хехт, Эддисон Рики, Джейкоб Баталон, Картер Гилл


О фильме:
В течение лета две тинейджерки становятся лучшими подругами, но есть одна проблема: одна из них встречается с бывшим парнем другой





Страна: США
Продолжительность: 01:23:30
Перевод:Субтитры


Файл
Кодек: x.264
Качество: WEB-DL 1080p
Видео: AVC, 1912x792 (2.40:1), 23.976 fps, 4 535 kb/s
Аудио: AC-3, 48.0 kHz, 6 ch, 384 kb/s | ENG
Субтитры: Русские (Full), английские (Full)

Перевод русских субтитров: Дарья Уманец

Рекламы нет | Сэмпл | Трейлер



MI
General
Unique ID : 244549805591689348820548150083734582698 (0xB7FA94502BC16D948BE66D7EC769B5AA)
Complete name : Banana.Split.(2018).WEB-DL.1080p.mkv
Format : Matroska
Format version : Version 4
File size : 2.87 GiB
Duration : 1 h 23 min
Overall bit rate : 4 921 kb/s
Encoded date : UTC 2020-05-24 18:24:02
Writing application : mkvmerge v8.3.0 ('Over the Horizon') 64bit
Writing library : libebml v1.3.1 + libmatroska v1.4.2

Video
ID : 1
Format : AVC
Format/Info : Advanced Video Codec
Format profile : High@L4
Format settings : CABAC / 5 Ref Frames
Format settings, CABAC : Yes
Format settings, ReFrames : 5 frames
Codec ID : V_MPEG4/ISO/AVC
Duration : 1 h 23 min
Bit rate : 4 535 kb/s
Width : 1 912 pixels
Height : 792 pixels
Display aspect ratio : 2.40:1
Frame rate mode : Constant
Frame rate : 23.976 FPS
Color space : YUV
Chroma subsampling : 4:2:0
Bit depth : 8 bits
Scan type : Progressive
Bits/(Pixel*Frame) : 0.125
Stream size : 2.65 GiB (92%)
Language : English
Default : Yes
Forced : No
Color range : Limited
Color primaries : BT.709
Transfer characteristics : BT.709
Matrix coefficients : BT.709

Audio
ID : 2
Format : AC-3
Format/Info : Audio Coding 3
Commercial name : Dolby Digital
Codec ID : A_AC3
Duration : 1 h 23 min
Bit rate mode : Constant
Bit rate : 384 kb/s
Channel(s) : 6 channels
Channel layout : L R C LFE Ls Rs
Sampling rate : 48.0 kHz
Frame rate : 31.250 FPS (1536 SPF)
Bit depth : 16 bits
Compression mode : Lossy
Delay relative to video : -42 ms
Stream size : 229 MiB (8%)
Language : English
Service kind : Complete Main
Default : Yes
Forced : No

Text #1
ID : 3
Format : UTF-8
Codec ID : S_TEXT/UTF8
Codec ID/Info : UTF-8 Plain Text
Duration : 1 h 21 min
Bit rate : 83 b/s
Count of elements : 1086
Stream size : 49.9 KiB (0%)
Title : Full
Language : Russian
Default : Yes
Forced : Yes

Text #2
ID : 4
Format : UTF-8
Codec ID : S_TEXT/UTF8
Codec ID/Info : UTF-8 Plain Text
Duration : 1 h 16 min
Bit rate : 63 b/s
Count of elements : 1123
Stream size : 35.3 KiB (0%)
Language : English
Default : No
Forced : No

Menu
00:00:00.000 : en:1
00:06:18.000 : en:2
00:18:22.000 : en:3
00:29:15.000 : en:4
00:40:11.000 : en:5
00:52:22.000 : en:6
01:01:32.000 : en:7
01:09:40.000 : en:8
01:18:02.000 : en:9
Скриншоты
 

Вложения

  • 58,3 KB Просмотры: 0
    Личеров 0
    Сидеров 0
    Файлов 1
    Объем 2,9 GB

Привет!

Мы группа людей которые решили помочь другим в решении их проблем, а так же пользователям с поиском самых свежих и качественных инфопродуктов. За 4 с небольшим месяца мы создали этот форум на который заходят ежедневно тысячи человек и посещаемость постоянно растёт. Мы создали панель лицензирования для защиты PHP скриптов от воровства и SEO панель для мониторинга наших сайтов и выбора верной стратегии их развития. Мы надеемся что то что мы создали пригодится Вам и возможно Вы поможете нам развиваться и совершенствоваться вместе с Вами.

Статистика форума

Темы
404.589
Сообщения
461.466
Пользователи
80.281
Новый пользователь
MrProUk

Приложения форума для iOS и Android


У ркн там нет власти ;)
Приватные разговоры
Помощь Пользователи
    Вы не присоединились ни к одной комнате.