За последнюю неделю опубликовано 90 новых материалов.
Инструкция новичку Путеводитель по форуму Прокси для Telegram Показать подсказки , это бомба!

Скачать Балкон с видом на море / Un balcon sur la mer (2010) BDRip 720p | P бесплатно через торрент

  • Поучаствуй (в качестве покупателя) в любых пяти совместных покупках (кроме завершённых и "Моментальных") и получи группу "Новичок" навсегда -> ссылка на раздел
  • Получай до 480 рублей за каждого приглашенного пользователя!
    представляем Вам очередное расширение партнерской программы, подробности описаны тут -> ссылка
  • 90% материалов доступно к скачиванию после простой регистрации!
    Если же ты хочешь скачивать материалы без требования оставлять отзывы то получи группу "Новичок", 10 способов повышения описаны тут -> ссылка
  • К сожалению количество битых ссылок растет и мы уже не можем их оперативно восстанавливать поэтому просим помощи у каждого нашего пользователя.
    С сегодняшнего дня, за каждую восстановленную ссылку мы заплатим Вам.
    Подробнее тут -> ссылка
  • Перенесем твои заслуги с другого ресурса!
    Мы понимаем как сложно прокачивать аккаунты на форумах, вроде раскачал аккаунт, а тут появляется ресурс в 100 раз круче но тоже с системой прокачки и снова качать аккаунт...
    Предлагаем вам перенести Ваши заслуги на другом подобном ресурсе к нам.
    Подробности описаны тут -> ссылка
  • Вы можете получать по 2.5% с каждой покупки и продажи на маркете! Подробности в теме Партнёрская программа
Если Вы не хотите скачивать, Вы всегда можетепосмотретьонлайн, просто нажмите кнопку ниже :

Открыть плеер

Torrent_Bot

Торрент-Бот
Бот форума
4 Окт 2016
102
153
20



Информация о фильме
Название: Балкон с видом на море
Оригинальное название: Un balcon sur la mer
Год выхода: 2010
Страна: Франция
Жанр:триллер, драма, мелодрама, детектив
Режиссер: Николь Гарсия
В ролях: Жан Дюжарден, Мари-Жозе Кроз, Тони Сервилло, Сандрин Киберлэн, Мишель Омон, Полин Белье, Жак Валлес, Клаудия Кардинале, Ромейн Мийо, Солен Форвейе

О фильме:
Марк с семьей живет на юге Франции и работает агентом по недвижимости. Он прекрасный муж и заботливый отец. Но жизнь иногда вносит свои перемены, и однажды, он встречает женщину, лицо которой удивительным образом напоминает ему Кати — его первую любовь, с которой он познакомился еще в детском возрасте, когда его семья жила в Алжире. Когда девушка таинственно исчезает, Марка охватывают сомнения: та ли это Кати, разбившая столько лет назад его сердце? И герой начинает свое собственное расследование.



Продолжительность: 01:47:08
Перевод: профессиональный (многоголосый закадровый) | Первый канал

О файле:
Качество: BDRip 720p
Формат: MKV
Видео: AVC, 1280x544 (2.35:1), 24 fps, ~4327 Kbps, 0.259 bit/pixel
Аудио 1: AC3, 2ch, 48 kHz, 192 Kbps - русский
Аудио 2: DTS, 6ch, 48 kHz, 1509 Kbps - французский
Субтитры: русские

MI
General
Unique ID : 152590572091161012450808635969376939242 (0x72CBE00D3F977ECFF1A4783FA198ECEA)
Complete name : Un.Balcon.Sur.La.Mer.2010.FRE.RUSmvo.RUSsub.720p.BluRay.x264-LOST.mkv
Format : Matroska
Format version : Version 4
File size : 4.51 GiB
Duration : 1 h 47 min
Overall bit rate : 6 027 kb/s
Encoded date : UTC 2020-04-08 11:53:35
Writing application : mkvmerge v45.0.0 ('Heaven in Pennies') 64-bit
Writing library : libebml v1.3.10 + libmatroska v1.5.2

Video
ID : 1
Format : AVC
Format/Info : Advanced Video Codec
Format profile : High@L4.1
Format settings : CABAC / 5 Ref Frames
Format settings, CABAC : Yes
Format settings, Reference fra : 5 frames
Codec ID : V_MPEG4/ISO/AVC
Duration : 1 h 47 min
Bit rate : 4 327 kb/s
Width : 1 280 pixels
Height : 544 pixels
Display aspect ratio : 2.35:1
Frame rate mode : Constant
Frame rate : 24.000 FPS
Color space : YUV
Chroma subsampling : 4:2:0
Bit depth : 8 bits
Scan type : Progressive
Bits/(Pixel*Frame) : 0.259
Stream size : 3.24 GiB (72%)
Writing library : x264 core 115 r1937 aa21558
Encoding settings : cabac=1 / ref=5 / deblock=1:0:0 / analyse=0x3:0x113 / me=umh / subme=7 / psy=1 / psy_rd=1.00:0.15 / mixed_ref=1 / me_range=16 / chroma_me=1 / trellis=1 / 8x8dct=1 / cqm=0 / deadzone=21,11 / fast_pskip=0 / chroma_qp_offset=-3 / threads=3 / sliced_threads=0 / nr=0 / decimate=1 / interlaced=0 / bluray_compat=0 / constrained_intra=0 / bframes=3 / b_pyramid=2 / b_adapt=1 / b_bias=0 / direct=1 / weightb=1 / open_gop=0 / weightp=2 / keyint=250 / keyint_min=24 / scenecut=40 / intra_refresh=0 / rc_lookahead=40 / rc=2pass / mbtree=1 / bitrate=4327 / ratetol=1.0 / qcomp=0.60 / qpmin=0 / qpmax=69 / qpstep=4 / cplxblur=20.0 / qblur=0.5 / ip_ratio=1.40 / aq=1:1.00
Language : French
Default : Yes
Forced : No

Audio #1
ID : 2
Format : AC-3
Format/Info : Audio Coding 3
Commercial name : Dolby Digital
Codec ID : A_AC3
Duration : 1 h 46 min
Bit rate mode : Constant
Bit rate : 192 kb/s
Channel(s) : 2 channels
Channel layout : L R
Sampling rate : 48.0 kHz
Frame rate : 31.250 FPS (1536 SPF)
Compression mode : Lossy
Delay relative to video : 22 ms
Stream size : 147 MiB (3%)
Title : MVO, Первый канал
Language : Russian
Service kind : Complete Main
Default : Yes
Forced : No

Audio #2
ID : 3
Format : DTS
Format/Info : Digital Theater Systems
Codec ID : A_DTS
Duration : 1 h 47 min
Bit rate mode : Constant
Bit rate : 1 509 kb/s
Channel(s) : 6 channels
Channel layout : C L R Ls Rs LFE
Sampling rate : 48.0 kHz
Frame rate : 93.750 FPS (512 SPF)
Bit depth : 24 bits
Compression mode : Lossy
Stream size : 1.13 GiB (25%)
Title : Original
Language : French
Default : No
Forced : No

Text
ID : 4
Format : UTF-8
Codec ID : S_TEXT/UTF8
Codec ID/Info : UTF-8 Plain Text
Duration : 1 h 41 min
Bit rate : 65 b/s
Count of elements : 1101
Stream size : 48.5 KiB (0%)
Title : Rus
Language : Russian
Default : Yes
Forced : No
Скриншоты
Дополнительная информация
Добавлены русские субтитры и звуковая дорожка к найденному на просторах зарубежных трекеров релизу. Авторство сохранено.
 

Вложения

  • 91,2 KB Просмотры: 0
    Личеров 0
    Сидеров 0
    Файлов 1
    Объем 4,5 GB

Привет!

Мы группа людей которые решили помочь другим в решении их проблем, а так же пользователям с поиском самых свежих и качественных инфопродуктов. За 4 с небольшим месяца мы создали этот форум на который заходят ежедневно тысячи человек и посещаемость постоянно растёт. Мы создали панель лицензирования для защиты PHP скриптов от воровства и SEO панель для мониторинга наших сайтов и выбора верной стратегии их развития. Мы надеемся что то что мы создали пригодится Вам и возможно Вы поможете нам развиваться и совершенствоваться вместе с Вами.

Статистика форума

Темы
405.442
Сообщения
462.402
Пользователи
80.448
Новый пользователь
Katie_nsk

Приложения форума для iOS и Android


У ркн там нет власти ;)
Приватные разговоры
Помощь Пользователи
    Вы не присоединились ни к одной комнате.