За последнюю неделю опубликовано 57 новых материалов.
Инструкция новичку Путеводитель по форуму Прокси для Telegram Показать подсказки , это бомба!

Скачать Балбесы / Шпана и пиратское золото / The Goonies (1985) HDRip-AVC | P бесплатно через торрент

  • Поучаствуй (в качестве покупателя) в любых пяти совместных покупках (кроме завершённых и "Моментальных") и получи группу "Новичок" навсегда -> ссылка на раздел
  • Получай до 480 рублей за каждого приглашенного пользователя!
    представляем Вам очередное расширение партнерской программы, подробности описаны тут -> ссылка
  • 90% материалов доступно к скачиванию после простой регистрации!
    Если же ты хочешь скачивать материалы без требования оставлять отзывы то получи группу "Новичок", 10 способов повышения описаны тут -> ссылка
  • К сожалению количество битых ссылок растет и мы уже не можем их оперативно восстанавливать поэтому просим помощи у каждого нашего пользователя.
    С сегодняшнего дня, за каждую восстановленную ссылку мы заплатим Вам.
    Подробнее тут -> ссылка
  • Перенесем твои заслуги с другого ресурса!
    Мы понимаем как сложно прокачивать аккаунты на форумах, вроде раскачал аккаунт, а тут появляется ресурс в 100 раз круче но тоже с системой прокачки и снова качать аккаунт...
    Предлагаем вам перенести Ваши заслуги на другом подобном ресурсе к нам.
    Подробности описаны тут -> ссылка
  • Вы можете получать по 2.5% с каждой покупки и продажи на маркете! Подробности в теме Партнёрская программа
Если Вы не хотите скачивать, Вы всегда можетепосмотретьонлайн, просто нажмите кнопку ниже :

Открыть плеер

Torrent_Bot

Торрент-Бот
Бот форума
4 Окт 2016
92
160
20



Информация о фильме
Название: Балбесы
Оригинальное название: The Goonies
Год выпуска: 1985
Жанр: Комедия, приключения, семейный
Режиссер: Ричард Доннер
В ролях: Шон Эстин, Джош Бролин, Джефф Коэн, Кори Фельдман, Керри Грин, Марта Плимптон, Джонатан Ке Кван, Роберт Дави, Джо Пантолиано

О фильме:
Команда маленьких героев пускается в самое опасное в их жизни путешествие! Они ищут сокровища, которые спрятал 300 лет назад пират Одноглазый Билли. С помощью найденной на чердаке таинственной карты они спускаются в подземный мир глубоких пещер, опасных ловушек, чтобы найти пиратский галеон, полный золотых дублонов. Но самая большая опасность уже наступает им на пятки: это — банда злодеев… и загадочный монстр!



Выпущено: США, Amblin Entertainment, Warner Bros. Pictures
Продолжительность: 01:53:55
Перевод: Профессиональный (многоголосый, закадровый)
Субтитры: Русские, английские

Файл
Формат: Matroska
Качество: HDRip-AVC
Видео: 720x300 at 23.976 fps, [email protected], ~850 kbps, 0.164 bpp
Аудио: AAC, 2 ch, ~64 kbps - | Русский | - MVO (Киномания)
Формат субтитров: softsub (SRT)

***Релиз от:-=DoMiNo=-

M/I
x264 [info]: frame I:1181 Avg QP:18.52 size: 23842
x264 [info]: frame P:36055 Avg QP:19.77 size: 9745
x264 [info]: frame B:126646 Avg QP:22.02 size: 2732
x264 [info]: consecutive B-frames: 1.6% 2.5% 6.9% 30.3% 19.1% 29.0% 5.1% 3.0% 1.4% 0.6% 0.1% 0.2% 0.0% 0.1% 0.0% 0.0% 0.1%

General
Format : Matroska
Format version : Version 4
File size : 745 MiB
Duration : 1 h 53 min
Overall bit rate : 915 kb/s
Movie name : Балбесы.(1985).HDRip-AVC.[-=DoMiNo=-]
Encoded date : UTC 2020-07-11 12:08:02
Writing application : mkvmerge v48.0.0 ('Fortress Around Your Heart') 64-bit
Writing library : libebml v1.4.0 + libmatroska v1.6.0
Cover : Yes
Attachments : Cover.jpg

Video
ID : 1
Format : AVC
Format/Info : Advanced Video Codec
Format profile : [email protected]
Format settings : CABAC / 15 Ref Frames
Format settings, CABAC : Yes
Format settings, Reference : 15 frames
Codec ID : V_MPEG4/ISO/AVC
Duration : 1 h 53 min
Bit rate : 850 kb/s
Width : 720 pixels
Height : 300 pixels
Display aspect ratio : 2.40:1
Frame rate mode : Constant
Frame rate : 23.976 (24000/1001) FPS
Color space : YUV
Chroma subsampling : 4:2:0
Bit depth : 8 bits
Scan type : Progressive
Bits/(Pixel*Frame) : 0.164
Stream size : 692 MiB (93%)
Title : -=DoMiNo=-
Writing library : x264 core 161 r3015 4c2aafd
Encoding settings : cabac=1 / ref=15 / deblock=1:-3:-3 / analyse=0x3:0x133 / me=umh / subme=11 / psy=1 / psy_rd=1.00:0.00 / mixed_ref=1 / me_range=32 / chroma_me=1 / trellis=2 / 8x8dct=1 / cqm=0 / deadzone=21,11 / fast_pskip=0 / chroma_qp_offset=-2 / threads=6 / lookahead_threads=1 / sliced_threads=0 / nr=0 / decimate=0 / interlaced=0 / bluray_compat=0 / constrained_intra=0 / bframes=16 / b_pyramid=2 / b_adapt=2 / b_bias=0 / direct=3 / weightb=1 / open_gop=0 / weightp=2 / keyint=250 / keyint_min=23 / scenecut=40 / intra_refresh=0 / rc=2pass / mbtree=0 / bitrate=850 / ratetol=1.0 / qcomp=0.65 / qpmin=0 / qpmax=69 / qpstep=4 / cplxblur=20.0 / qblur=0.5 / ip_ratio=1.40 / pb_ratio=1.30 / aq=1:1.00
Language : English
Default : Yes
Forced : No
Color range : Limited
Color primaries : BT.709
Transfer characteristics : BT.709
Matrix coefficients : BT.709

Audio
ID : 2
Format : AAC LC SBR
Format/Info : Advanced Audio Codec Low Complexity with Spectral Band Replication
Commercial name : HE-AAC
Format settings : Explicit
Codec ID : A_AAC-2
Duration : 1 h 53 min
Bit rate : 62.7 kb/s
Channel(s) : 2 channels
Channel layout : L R
Sampling rate : 48.0 kHz
Frame rate : 23.438 FPS (2048 SPF)
Compression mode : Lossy
Stream size : 51.1 MiB (7%)
Title : MVO_[Киномания]
Language : Russian
Default : Yes
Forced : No

Text #1
ID : 3
Format : UTF-8
Codec ID : S_TEXT/UTF8
Codec ID/Info : UTF-8 Plain Text
Duration : 1 h 47 min
Bit rate : 88 b/s
Count of elements : 1156
Stream size : 69.5 KiB (0%)
Language : Russian
Default : No
Forced : No

Text #2
ID : 4
Format : UTF-8
Codec ID : S_TEXT/UTF8
Codec ID/Info : UTF-8 Plain Text
Duration : 1 h 53 min
Bit rate : 61 b/s
Count of elements : 1626
Stream size : 51.5 KiB (0%)
Language : English
Default : No
Forced : No

Menu
00:00:00.000 : en:Jailbreak (Credits)
00:05:04.887 : en:Last Goonies Weekend
00:07:08.970 : en:Amazing Chunk and Data
00:09:54.635 : en:Mouth En Espanol
00:13:49.703 : en:Treasure Map
00:20:02.492 : en:Foreclosure Papers
00:22:45.072 : en:Escape (the Goonies 'r' Good Enough)
00:25:37.744 : en:Brand Gets a Ride
00:27:13.340 : en:The Hideout
00:30:40.755 : en:"You Boys Like Tongue?"
00:33:34.303 : en:A Giant It
00:36:48.497 : en:Girl Goonies
00:38:42.528 : en:Secret Passage
00:42:13.614 : en:Ice Cream, Pizza and a Body
00:46:10.768 : en:Exploring the Passage
00:48:43.295 : en:Chunk Hitches a Ride
00:49:47.776 : en:pipes
00:52:52.502 : en:Copperpot's Skeleton
00:55:48.136 : en:Booby Trap with Bats
00:58:12.488 : en:Just Short of Puree
00:59:31.484 : en:Wishing Well
01:03:34.477 : en:Sloth; Never Say Die
01:07:12.069 : en:Baby Ruth Power
01:09:46.265 : en:Triple Stones
01:12:48.072 : en:Mikey's First Kiss
01:15:20.516 : en:Slick Shoes
01:18:18.777 : en:play the Tune... or Die
01:22:06.963 : en:Whoa! Water Slide!
01:23:39.973 : en:pirate Ship
01:27:15.396 : en:Treasure
01:30:34.303 : en:Walking the Plank
01:33:39.697 : en:Sloth and Captain Chunk to the Rescue
01:38:39.288 : en:Letting in the Light
01:41:27.790 : en:Family Reunions
01:45:15.392 : en:No Forclosures
01:47:13.385 : en:Sailing Away
01:48:31.338 : en:End Credits (the Goonies 'r' Good Enough)
Скриншоты
 

Вложения

  • 30,2 KB Просмотры: 0
    Личеров 0
    Сидеров 0
    Файлов 1
    Объем 745,3 MB

Привет!

Мы группа людей которые решили помочь другим в решении их проблем, а так же пользователям с поиском самых свежих и качественных инфопродуктов. За 4 с небольшим месяца мы создали этот форум на который заходят ежедневно тысячи человек и посещаемость постоянно растёт. Мы создали панель лицензирования для защиты PHP скриптов от воровства и SEO панель для мониторинга наших сайтов и выбора верной стратегии их развития. Мы надеемся что то что мы создали пригодится Вам и возможно Вы поможете нам развиваться и совершенствоваться вместе с Вами.

Статистика форума

Темы
406.651
Сообщения
465.098
Пользователи
84.644
Новый пользователь
Гагик

Приложения форума для iOS и Android


У ркн там нет власти ;)
Приватные разговоры
Помощь Пользователи
    Вы не присоединились ни к одной комнате.