За последнюю неделю опубликовано 80 новых материалов.
Инструкция новичку Путеводитель по форуму Прокси для Telegram Показать подсказки , это бомба!

Скачать B(if)tek - Sub-Vocal Theme Park [Acid Unravelled] (1996) FLAC бесплатно через торрент

  • Поучаствуй (в качестве покупателя) в любых пяти совместных покупках (кроме завершённых и "Моментальных") и получи группу "Новичок" навсегда -> ссылка на раздел
  • Получай до 480 рублей за каждого приглашенного пользователя!
    представляем Вам очередное расширение партнерской программы, подробности описаны тут -> ссылка
  • 90% материалов доступно к скачиванию после простой регистрации!
    Если же ты хочешь скачивать материалы без требования оставлять отзывы то получи группу "Новичок", 10 способов повышения описаны тут -> ссылка
  • К сожалению количество битых ссылок растет и мы уже не можем их оперативно восстанавливать поэтому просим помощи у каждого нашего пользователя.
    С сегодняшнего дня, за каждую восстановленную ссылку мы заплатим Вам.
    Подробнее тут -> ссылка
  • Перенесем твои заслуги с другого ресурса!
    Мы понимаем как сложно прокачивать аккаунты на форумах, вроде раскачал аккаунт, а тут появляется ресурс в 100 раз круче но тоже с системой прокачки и снова качать аккаунт...
    Предлагаем вам перенести Ваши заслуги на другом подобном ресурсе к нам.
    Подробности описаны тут -> ссылка
  • Вы можете получать по 2.5% с каждой покупки и продажи на маркете! Подробности в теме Партнёрская программа

Torrent_Bot

Торрент-Бот
Бот форума
4 Окт 2016
104
152
20



Название: Sub-Vocal Theme Park [Acid Unravelled]
Исполнитель: B(if)tek
Год: 1996
Жанр: Trance, Techno, Goa Trance, Downtempo
Страна: Australia

Продолжительность: 01:03:43
Формат/Кодек: FLAC
Битрейт аудио: Lossless
Тип рипа: tracks + .cue
Рип: шарик-off

Лицензия

Трек-лист
01. Cosmic Love (5:47)
02. Dasein (5:28)
03. Quite A World (6:28)
04. The Climb (8:31)
05. Pye (7:05)
06. They Oscillate (5:17)
07. Nylon Gods (7:05)
08. Possibilities (5:20)
09. Little Something (5:59)
10. Les Galaxies (6:43)Отчёт EAC
Exact Audio Copy V1.3 from 2. September 2016

EAC extraction logfile from 1. June 2019, 19:50

B(if)tek / Sub-Vocal Theme Park

Used drive : ASUS DRW-24D5MT Adapter: 0 ID: 1

Read mode : Secure
Utilize accurate stream : Yes
Defeat audio cache : Yes
Make use of C2 pointers : No

Read offset correction : 6
Overread into Lead-In and Lead-Out : No
Fill up missing offset samples with silence : Yes
Delete leading and trailing silent blocks : No
Null samples used in CRC calculations : Yes
Used interface : Installed external ASPI interface
Gap handling : Appended to previous track

Used output format : User Defined Encoder
Selected bitrate : 896 kBit/s
Quality : High
Add ID3 tag : No
Command line compressor : C:program Files (x86)Exact Audio CopyFlacflac.exe
Additional command line options : -8 -V -T "TITLE=%title%" -T "ARTIST=%artist%" -T "ALBUMARTIST=%albumartist%" -T "ALBUM=%albumtitle%" -T "DATE=%year%" -T "TRACKNUMBER=%tracknr%" -T "TRACKTOTAL=%numtracks%" -T "GENRE=%genre%" -T "COMMENT=%comment%" -T "PERFORMER=%albuminterpret%" -T "COMPOSER=%composer%" %source% -o %dest%


TOC of the extracted CD

Track | Start | Length | Start sector | End sector
---------------------------------------------------------
1 | 0:00.13 | 5:47.69 | 13 | 26106
2 | 5:48.07 | 5:28.30 | 26107 | 50736
3 | 11:16.37 | 6:28.51 | 50737 | 79887
4 | 17:45.13 | 8:31.74 | 79888 | 118286
5 | 26:17.12 | 7:05.40 | 118287 | 150201
6 | 33:22.52 | 5:17.33 | 150202 | 174009
7 | 38:40.10 | 7:05.73 | 174010 | 205957
8 | 45:46.08 | 5:20.16 | 205958 | 229973
9 | 51:06.24 | 5:59.18 | 229974 | 256916
10 | 57:05.42 | 6:43.49 | 256917 | 287190


Track 1

Filename D:шарик-off1. Cosmic Love.wav

Pre-gap length 0:00:02.13

Peak level 99.9 %
Extraction speed 1.1 X
Track quality 99.9 %
Test CRC C2E43BBB
Copy CRC C2E43BBB
Accurately ripped (confidence 1) [0D3FC8FC] (AR v1)
Copy OK

Track 2

Filename D:шарик-off2. Dasein.wav

Pre-gap length 0:00:01.49

Peak level 99.9 %
Extraction speed 1.4 X
Track quality 100.0 %
Test CRC DC7B2AC4
Copy CRC DC7B2AC4
Accurately ripped (confidence 1) [EBE125F7] (AR v1)
Copy OK

Track 3

Filename D:шарик-off3. Quite a World.wav

Pre-gap length 0:00:01.47

Peak level 99.9 %
Extraction speed 1.6 X
Track quality 100.0 %
Test CRC 3E24DEA2
Copy CRC 3E24DEA2
Accurately ripped (confidence 1) [C49499AA] (AR v1)
Copy OK

Track 4

Filename D:шарик-off4. The Climb.wav

Pre-gap length 0:00:01.58

Peak level 99.9 %
Extraction speed 1.8 X
Track quality 100.0 %
Test CRC 516E66A7
Copy CRC 516E66A7
Accurately ripped (confidence 1) [114FD738] (AR v1)
Copy OK

Track 5

Filename D:шарик-off5. Pye.wav

Pre-gap length 0:00:01.49

Peak level 99.9 %
Extraction speed 1.9 X
Track quality 100.0 %
Test CRC CE59334A
Copy CRC CE59334A
Accurately ripped (confidence 1) [6DDE9DB3] (AR v1)
Copy OK

Track 6

Filename D:шарик-off6. They Oscillate.wav

Pre-gap length 0:00:01.44

Peak level 99.9 %
Extraction speed 2.0 X
Track quality 100.0 %
Test CRC E4BD9508
Copy CRC E4BD9508
Accurately ripped (confidence 1) [526906BB] (AR v1)
Copy OK

Track 7

Filename D:шарик-off7. Nylon Gods.wav

Pre-gap length 0:00:01.49

Peak level 99.9 %
Extraction speed 2.2 X
Track quality 100.0 %
Test CRC FBF382F2
Copy CRC FBF382F2
Accurately ripped (confidence 1) [6D0FA169] (AR v1)
Copy OK

Track 8

Filename D:шарик-off8. Possibilities.wav

Pre-gap length 0:00:01.49

Peak level 99.9 %
Extraction speed 2.2 X
Track quality 100.0 %
Test CRC 2E5E3DEA
Copy CRC 2E5E3DEA
Accurately ripped (confidence 1) [790E8A0E] (AR v1)
Copy OK

Track 9

Filename D:шарик-off9. Little Something.wav

Pre-gap length 0:00:01.49

Peak level 99.9 %
Extraction speed 2.3 X
Track quality 100.0 %
Test CRC C2A886F1
Copy CRC C2A886F1
Accurately ripped (confidence 1) [BF681D11] (AR v1)
Copy OK

Track 10

Filename D:шарик-off10. Les Galaxies.wav

Pre-gap length 0:00:01.44

Peak level 99.9 %
Extraction speed 2.5 X
Track quality 100.0 %
Test CRC 41A7B76A
Copy CRC 41A7B76A
Accurately ripped (confidence 1) [C357B12F] (AR v1)
Copy OK


All tracks accurately ripped

No errors occurred

End of status report

==== Log checksum FB4EDD4FBE60EA7A2A33C50D6BF225D26F7407F23424A2602CCD644C90CA4C60 ====
Дополнительная информация: B(if)tek Pioneering electro-femme outfit popular in Australia 1996-2003. Feminism with a wink and a bleep. Ladytron before Ladytron. Influences include Mouse on Mars, Boards of Canada, Kraftwerk, deep analogue sounds. Members: Nicole Skeltys and Kate Crawford.
 

Вложения

  • 14,8 KB Просмотры: 1
    Личеров 0
    Сидеров 0
    Файлов 20
    Объем 331,7 MB

Привет!

Мы группа людей которые решили помочь другим в решении их проблем, а так же пользователям с поиском самых свежих и качественных инфопродуктов. За 4 с небольшим месяца мы создали этот форум на который заходят ежедневно тысячи человек и посещаемость постоянно растёт. Мы создали панель лицензирования для защиты PHP скриптов от воровства и SEO панель для мониторинга наших сайтов и выбора верной стратегии их развития. Мы надеемся что то что мы создали пригодится Вам и возможно Вы поможете нам развиваться и совершенствоваться вместе с Вами.

Статистика форума

Темы
404.531
Сообщения
461.403
Пользователи
80.039
Новый пользователь
asuna

Приложения форума для iOS и Android


У ркн там нет власти ;)
Приватные разговоры
Помощь Пользователи
    Вы не присоединились ни к одной комнате.