За последнюю неделю опубликовано 59 новых материалов.
Инструкция новичку Путеводитель по форуму Прокси для Telegram Показать подсказки , это бомба!

Скачать Avi Rosenfeld - Very Heepy Very Purple IX [24bit Hi-Res] (2019) FLAC бесплатно через торрент

  • Поучаствуй (в качестве покупателя) в любых пяти совместных покупках (кроме завершённых и "Моментальных") и получи группу "Новичок" навсегда -> ссылка на раздел
  • Получай до 480 рублей за каждого приглашенного пользователя!
    представляем Вам очередное расширение партнерской программы, подробности описаны тут -> ссылка
  • 90% материалов доступно к скачиванию после простой регистрации!
    Если же ты хочешь скачивать материалы без требования оставлять отзывы то получи группу "Новичок", 10 способов повышения описаны тут -> ссылка
  • К сожалению количество битых ссылок растет и мы уже не можем их оперативно восстанавливать поэтому просим помощи у каждого нашего пользователя.
    С сегодняшнего дня, за каждую восстановленную ссылку мы заплатим Вам.
    Подробнее тут -> ссылка
  • Перенесем твои заслуги с другого ресурса!
    Мы понимаем как сложно прокачивать аккаунты на форумах, вроде раскачал аккаунт, а тут появляется ресурс в 100 раз круче но тоже с системой прокачки и снова качать аккаунт...
    Предлагаем вам перенести Ваши заслуги на другом подобном ресурсе к нам.
    Подробности описаны тут -> ссылка
  • Вы можете получать по 2.5% с каждой покупки и продажи на маркете! Подробности в теме Партнёрская программа

Torrent_Bot

Торрент-Бот
Бот форума
4 Окт 2016
90
168
20



Исполнитель: Avi Rosenfeld
Название: Very Heepy Very Purple IX
Год: 2019
Жанр: 70's Hard-Rock
Страна: Israel
Продолжительность: 00:46:08
Битрейт аудио: Lossless
Формат/Кодек: FLAC
Тип рипа: tracks
Разрядность: 24/44,1
Количество каналов: 2.0


01 - Dead End (00:05:20)
02 - Lights Out (00:04:06)
03 - Lost Behind The Enemy Lines (00:04:00)
04 - Sorcerer (00:04:03)
05 - Desert Wind (00:04:46)
06 - Waves Are Coming (00:04:07)
07 - Sail The Seas Inspiration (00:05:18)
08 - Crazy Woman (00:04:46)
09 - Wolf (00:04:10)
10 - The Time Of Ancient War And Hunger (00:05:27)

DR
foobar2000 1.4.4 / Замер динамического диапазона (DR) 1.1.1
Дата отчёта: 2019-06-03 08:14:12

--------------------------------------------------------------------------------
Анализ: Avi Rosenfeld / Very Heepy Very Purple IX
--------------------------------------------------------------------------------

DR Пики RMS Продолжительность трека
--------------------------------------------------------------------------------
DR6 0.00 дБ -7.13 дБ 5:20 01-Dead End
DR6 0.00 дБ -6.68 дБ 4:07 02-Lights Out
DR6 0.00 дБ -6.40 дБ 4:00 03-Lost Behind The Enemy Lines
DR7 0.00 дБ -8.80 дБ 4:04 04-Sorcerer
DR7 0.00 дБ -8.61 дБ 4:47 05-Desert Wind
DR6 0.00 дБ -7.14 дБ 4:08 06-Waves Are Coming
DR6 0.00 дБ -7.06 дБ 5:18 07-Sail The Seas Inspiration
DR6 0.00 дБ -6.71 дБ 4:46 08-Crazy Woman
DR6 0.00 дБ -7.06 дБ 4:10 09-Wolf
DR6 0.00 дБ -6.82 дБ 5:28 10-The Time Of Ancient War And Hunger
--------------------------------------------------------------------------------

Количество треков: 10
Реальные значения DR: DR6

Частота: 44100 Гц
Каналов: 2
Разрядность: 24
Битрейт: 1763 кбит/с
Кодек: FLAC
================================================================================
 

Вложения

  • 12,7 KB Просмотры: 1
    Личеров 0
    Сидеров 0
    Файлов 12
    Объем 571,4 MB

Привет!

Мы группа людей которые решили помочь другим в решении их проблем, а так же пользователям с поиском самых свежих и качественных инфопродуктов. За 4 с небольшим месяца мы создали этот форум на который заходят ежедневно тысячи человек и посещаемость постоянно растёт. Мы создали панель лицензирования для защиты PHP скриптов от воровства и SEO панель для мониторинга наших сайтов и выбора верной стратегии их развития. Мы надеемся что то что мы создали пригодится Вам и возможно Вы поможете нам развиваться и совершенствоваться вместе с Вами.

Статистика форума

Темы
410.947
Сообщения
469.365
Пользователи
88.323
Новый пользователь
Tata5311

Приложения форума для iOS и Android


У ркн там нет власти ;)
Приватные разговоры
Помощь Пользователи
    Вы не присоединились ни к одной комнате.