За последнюю неделю опубликовано 63 новых материалов.
Инструкция новичку Путеводитель по форуму Прокси для Telegram Показать подсказки , это бомба!

Скачать Авария / Breakdown (1997) WEB-DLRip 1080p от KORSAR | Р, Р2, Р1 | Open Matte бесплатно через торрент

  • Поучаствуй (в качестве покупателя) в любых пяти совместных покупках (кроме завершённых и "Моментальных") и получи группу "Новичок" навсегда -> ссылка на раздел
  • Получай до 480 рублей за каждого приглашенного пользователя!
    представляем Вам очередное расширение партнерской программы, подробности описаны тут -> ссылка
  • 90% материалов доступно к скачиванию после простой регистрации!
    Если же ты хочешь скачивать материалы без требования оставлять отзывы то получи группу "Новичок", 10 способов повышения описаны тут -> ссылка
  • К сожалению количество битых ссылок растет и мы уже не можем их оперативно восстанавливать поэтому просим помощи у каждого нашего пользователя.
    С сегодняшнего дня, за каждую восстановленную ссылку мы заплатим Вам.
    Подробнее тут -> ссылка
  • Перенесем твои заслуги с другого ресурса!
    Мы понимаем как сложно прокачивать аккаунты на форумах, вроде раскачал аккаунт, а тут появляется ресурс в 100 раз круче но тоже с системой прокачки и снова качать аккаунт...
    Предлагаем вам перенести Ваши заслуги на другом подобном ресурсе к нам.
    Подробности описаны тут -> ссылка
  • Вы можете получать по 2.5% с каждой покупки и продажи на маркете! Подробности в теме Партнёрская программа
Если Вы не хотите скачивать, Вы всегда можетепосмотретьонлайн, просто нажмите кнопку ниже :

Открыть плеер

Torrent_Bot

Торрент-Бот
Бот форума
4 Окт 2016
92
160
20







Авария / Breakdown
Год выхода: 1997
Жанр: Триллер, драма, криминал
Режиссер: Джонатан Мостоу
В ролях: Курт Расселл, Джей Ти Уолш, Кэтлин Куинлен, М.С. Гэйни, Джек Ноузуорти, Рекс Линн, Ритч Бринкли, Мойра Харрис, Ким Робиллард, Томас Копаче

О фильме: Джефф и Эми Тейлор решили переехать к новому месту жительства в Сан-Диего на дорогом джипе. По дороге Джефф чуть не врезался в пикап с двумя местными отморозками. А когда джип неожиданно заглох на обочине пустынной трассы, водитель попутного трейлера Рэд Барр предложил подвезти Эми до ближайшего телефона, а Джефф остался охранять машину.
С этого момента его жизнь превращается в кошмарный сон. В придорожном кафе, где он договорился встретиться с женой, Джефф не находит Эми. Оказывается, доморощенные бандиты решили взять за похищенную женщину выкуп. И тогда миролюбивый обыватель Джефф, вырвавшись из-под стволов вымогателей, сам превращается в безжалостного охотника…


Релиз от:


Страна: США
Выпущено: Dino De Laurentiis Productions, Paramount Pictures, Spelling Films
Продолжительность: 01:29:54
Перевод: Профессиональный (многоголосый закадровый), Профессиональный (двухголосый закадровый), Авторский (одноголосый закадровый)

Формат: MKV
Качество: WEB-DLRip 1080p | Open Matte
Видео: MPEG-4 AVC, 1920х1080, 25 fps, 14,5 Мбит/сек
Аудио 1: AC3, 2 ch, 256 Kbps - Русский (MVO СТС)
Аудио 2: AC3, 2 ch, 224 Kbps - Русский (MVO РТР)
Аудио 3: AC3, 6 ch, 448 Kbps - Русский (DVO НТВ+)
Аудио 4: AC3, 6 ch, 448 Kbps - Русский (DVO Twister)
Аудио 5: AC3, 2 ch, 224 Kbps - Русский (DVO TV1000)
Аудио 6: AC3, 6 ch, 448 Kbps - Русский (AVO Гаврилов)
Аудио 7: AC3, 6 ch, 448 Kbps - Русский (AVO Живов)
Аудио 8: AC3, 6 ch, 448 Kbps - Английский
Субтитры: русские, английские



Инфо файл
x264 [info]: frame I:821 Avg QP:17.54 size:373240
x264 [info]: frame P:29801 Avg QP:20.29 size:155402
x264 [info]: frame B:103372 Avg QP:22.31 size: 46216
x264 [info]: consecutive B-frames: 1.8% 3.7% 8.8% 18.6% 19.6% 39.0% 5.7% 1.9% 0.5% 0.2% 0.1% 0.0%
------------------------------------------------------------
Общее
Уникальный идентификатор : 240588733219988253445813727737292433304 (0xB4FFB45DFB7AD7838C854ECCE626A798)
Полное имя : G:Авария_1997-WEB-DLRip 1080p_KORSAR-Open Matte.mkv
Формат : Matroska
Версия формата : Version 2
Размер файла : 10,9 Гбайт
Продолжительность : 1 ч. 29 м.
Общий поток : 17,3 Мбит/сек
Название фильма : Авария_1997-WEB-DLRip 1080p_KORSAR-Open Matte
Дата кодирования : UTC 2020-04-26 11:47:58
Программа кодирования : mkvmerge v5.8.0 ('No Sleep / Pillow') built on Sep 2 2012 15:37:04
Библиотека кодирования : libebml v1.2.3 + libmatroska v1.3.0

Видео
Идентификатор : 1
Формат : AVC
Формат/Информация : Advanced Video Codec
Профиль формата : [email protected]
Настройки формата : CABAC / 4 Ref Frames
Параметр CABAC формата : Да
Параметр RefFrames формата : 4 кадра
Идентификатор кодека : V_MPEG4/ISO/AVC
Продолжительность : 1 ч. 29 м.
Битрейт : 14,5 Мбит/сек
Ширина : 1 920 пикселей
Высота : 1 080 пикселей
Соотношение сторон : 16:9
Режим частоты кадров : Постоянный
Частота кадров : 25,000 кадров/сек
Цветовое пространство : YUV
Субдискретизация насыщенности : 4:2:0
Битовая глубина : 8 бит
Тип развёртки : Прогрессивная
Бит/(Пиксели*Кадры) : 0.280
Размер потока : 8,82 Гбайт (81%)
Библиотека кодирования : x264 core 152 r2851kMod ba24899
Настройки программы : cabac=1 / ref=4 / deblock=1:-1:-1 / analyse=0x3:0x113 / me=umh / subme=11 / psy=1 / fade_compensate=0.00 / psy_rd=1.05:0.10 / mixed_ref=1 / me_range=48 / chroma_me=1 / trellis=2 / 8x8dct=1 / cqm=0 / deadzone=21,11 / fast_pskip=0 / chroma_qp_offset=-3 / threads=4 / lookahead_threads=1 / sliced_threads=0 / nr=0 / decimate=0 / interlaced=0 / bluray_compat=0 / constrained_intra=0 / bframes=11 / b_pyramid=2 / b_adapt=2 / b_bias=0 / direct=3 / weightb=1 / open_gop=0 / weightp=2 / keyint=250 / keyint_min=25 / scenecut=40 / intra_refresh=0 / rc_lookahead=40 / rc=2pass / mbtree=0 / bitrate=14500 / ratetol=1.0 / qcomp=0.63 / qpmin=0 / qpmax=33 / qpstep=4 / cplxblur=20.0 / qblur=0.5 / vbv_maxrate=50000 / vbv_bufsize=62500 / nal_hrd=none / filler=0 / ip_ratio=1.40 / pb_ratio=1.30 / aq=3:0.90
Язык : English
Default : Да
Forced : Нет
Цветовой диапазон : Limited
Основные цвета : BT.709
Характеристики трансфера : BT.709
Коэффициенты матрицы : BT.709
Duration_Source : General_Duration

Аудио #1
Идентификатор : 2
Формат : AC-3
Формат/Информация : Audio Coding 3
Коммерческое название : Dolby Digital
Идентификатор кодека : A_AC3
Продолжительность : 1 ч. 29 м.
Вид битрейта : Постоянный
Битрейт : 448 Кбит/сек
Каналы : 6 каналов
Channel layout : L R C LFE Ls Rs
Частота : 48,0 КГц
Частота кадров : 31,250 кадров/сек (1536 SPF)
Метод сжатия : С потерями
Размер потока : 288 Мбайт (3%)
Заголовок : НТВ+
Язык : Russian

Default : Да
Forced : Нет
Statistics Tags Issue : mkvmerge v38.0.0 ('The Silent Type') 64-bit 2019-10-29 20:24:55 / mkvmerge v5.8.0 ('No Sleep / Pillow') built on Sep 2 2012 15:37:04 2020-04-26 11:47:58
FromStats_BitRate : 448000
FromStats_Duration : 01:29:17.984000000
FromStats_FrameCount : 167437
FromStats_StreamSize : 300047104
Duration_Source : General_Duration

Аудио #2
Идентификатор : 3
Формат : AC-3
Формат/Информация : Audio Coding 3
Коммерческое название : Dolby Digital
Идентификатор кодека : A_AC3
Продолжительность : 1 ч. 29 м.
Вид битрейта : Постоянный
Битрейт : 448 Кбит/сек
Каналы : 6 каналов
Channel layout : L R C LFE Ls Rs
Частота : 48,0 КГц
Частота кадров : 31,250 кадров/сек (1536 SPF)
Метод сжатия : С потерями
Размер потока : 288 Мбайт (3%)
Заголовок : Twister
Язык : Russian

Default : Нет
Forced : Нет
Statistics Tags Issue : mkvmerge v38.0.0 ('The Silent Type') 64-bit 2019-10-29 20:24:55 / mkvmerge v5.8.0 ('No Sleep / Pillow') built on Sep 2 2012 15:37:04 2020-04-26 11:47:58
FromStats_BitRate : 448000
FromStats_Duration : 01:29:17.984000000
FromStats_FrameCount : 167437
FromStats_StreamSize : 300047104
Duration_Source : General_Duration

Аудио #3
Идентификатор : 4
Формат : AC-3
Формат/Информация : Audio Coding 3
Коммерческое название : Dolby Digital
Идентификатор кодека : A_AC3
Продолжительность : 1 ч. 29 м.
Вид битрейта : Постоянный
Битрейт : 256 Кбит/сек
Каналы : 2 канала
Channel layout : L R
Частота : 48,0 КГц
Частота кадров : 31,250 кадров/сек (1536 SPF)
Метод сжатия : С потерями
Размер потока : 165 Мбайт (1%)
Заголовок : СТС
Язык : Russian

Default : Нет
Forced : Нет
Statistics Tags Issue : mkvmerge v38.0.0 ('The Silent Type') 64-bit 2019-10-29 20:24:55 / mkvmerge v5.8.0 ('No Sleep / Pillow') built on Sep 2 2012 15:37:04 2020-04-26 11:47:58
FromStats_BitRate : 256000
FromStats_Duration : 01:29:17.696000000
FromStats_FrameCount : 167428
FromStats_StreamSize : 171446272
Duration_Source : General_Duration

Аудио #4
Идентификатор : 5
Формат : AC-3
Формат/Информация : Audio Coding 3
Коммерческое название : Dolby Digital
Идентификатор кодека : A_AC3
Продолжительность : 1 ч. 29 м.
Вид битрейта : Постоянный
Битрейт : 224 Кбит/сек
Каналы : 2 канала
Channel layout : L R
Частота : 48,0 КГц
Частота кадров : 31,250 кадров/сек (1536 SPF)
Метод сжатия : С потерями
Размер потока : 144 Мбайт (1%)
Заголовок : РТР
Язык : Russian

Default : Нет
Forced : Нет
Statistics Tags Issue : mkvmerge v38.0.0 ('The Silent Type') 64-bit 2019-10-29 20:24:55 / mkvmerge v5.8.0 ('No Sleep / Pillow') built on Sep 2 2012 15:37:04 2020-04-26 11:47:58
FromStats_BitRate : 224000
FromStats_Duration : 01:29:17.792000000
FromStats_FrameCount : 167431
FromStats_StreamSize : 150018176
Duration_Source : General_Duration

Аудио #5
Идентификатор : 6
Формат : AC-3
Формат/Информация : Audio Coding 3
Коммерческое название : Dolby Digital
Идентификатор кодека : A_AC3
Продолжительность : 1 ч. 29 м.
Вид битрейта : Постоянный
Битрейт : 224 Кбит/сек
Каналы : 2 канала
Channel layout : L R
Частота : 48,0 КГц
Частота кадров : 31,250 кадров/сек (1536 SPF)
Метод сжатия : С потерями
Размер потока : 144 Мбайт (1%)
Заголовок : ТВ 1000
Язык : Russian

Default : Нет
Forced : Нет
Statistics Tags Issue : mkvmerge v38.0.0 ('The Silent Type') 64-bit 2019-10-29 20:24:55 / mkvmerge v5.8.0 ('No Sleep / Pillow') built on Sep 2 2012 15:37:04 2020-04-26 11:47:58
FromStats_BitRate : 224000
FromStats_Duration : 01:29:54.880000000
FromStats_FrameCount : 168590
FromStats_StreamSize : 151056640
Duration_Source : General_Duration

Аудио #6
Идентификатор : 7
Формат : AC-3
Формат/Информация : Audio Coding 3
Коммерческое название : Dolby Digital
Идентификатор кодека : A_AC3
Продолжительность : 1 ч. 29 м.
Вид битрейта : Постоянный
Битрейт : 448 Кбит/сек
Каналы : 6 каналов
Channel layout : L R C LFE Ls Rs
Частота : 48,0 КГц
Частота кадров : 31,250 кадров/сек (1536 SPF)
Метод сжатия : С потерями
Размер потока : 288 Мбайт (3%)
Заголовок : AVO-Гаврилов
Язык : Russian

Default : Нет
Forced : Нет
Duration_Source : General_Duration

Аудио #7
Идентификатор : 8
Формат : AC-3
Формат/Информация : Audio Coding 3
Коммерческое название : Dolby Digital
Идентификатор кодека : A_AC3
Продолжительность : 1 ч. 29 м.
Вид битрейта : Постоянный
Битрейт : 448 Кбит/сек
Каналы : 6 каналов
Channel layout : L R C LFE Ls Rs
Частота : 48,0 КГц
Частота кадров : 31,250 кадров/сек (1536 SPF)
Метод сжатия : С потерями
Размер потока : 288 Мбайт (3%)
Заголовок : AVO-Живов
Язык : Russian

Default : Нет
Forced : Нет
Duration_Source : General_Duration

Аудио #8
Идентификатор : 9
Формат : AC-3
Формат/Информация : Audio Coding 3
Коммерческое название : Dolby Digital
Идентификатор кодека : A_AC3
Продолжительность : 1 ч. 29 м.
Вид битрейта : Постоянный
Битрейт : 448 Кбит/сек
Каналы : 6 каналов
Channel layout : L R C LFE Ls Rs
Частота : 48,0 КГц
Частота кадров : 31,250 кадров/сек (1536 SPF)
Метод сжатия : С потерями
Размер потока : 288 Мбайт (3%)
Язык : English

Default : Нет
Forced : Нет
Duration_Source : General_Duration

Текст #1
Идентификатор : 10
Формат : UTF-8
Идентификатор кодека : S_TEXT/UTF8
Идентификатор кодека/Информация : UTF-8 Plain Text
Язык : Russian
Default : Нет
Forced : Нет
Statistics Tags Issue : mkvmerge v38.0.0 ('The Silent Type') 64-bit 2019-10-29 20:24:55 / mkvmerge v5.8.0 ('No Sleep / Pillow') built on Sep 2 2012 15:37:04 2020-04-26 11:47:58
FromStats_BitRate : 54
FromStats_Duration : 01:23:12.758000000
FromStats_FrameCount : 464
FromStats_StreamSize : 33926

Текст #2
Идентификатор : 11
Формат : UTF-8
Идентификатор кодека : S_TEXT/UTF8
Идентификатор кодека/Информация : UTF-8 Plain Text
Язык : English
Default : Нет
Forced : Нет
Statistics Tags Issue : mkvmerge v38.0.0 ('The Silent Type') 64-bit 2019-10-29 20:24:55 / mkvmerge v5.8.0 ('No Sleep / Pillow') built on Sep 2 2012 15:37:04 2020-04-26 11:47:58
FromStats_BitRate : 33
FromStats_Duration : 01:26:08.549000000
FromStats_FrameCount : 576
FromStats_StreamSize : 21798
Примечание & Сравнения:
Open Matte-версия фильма имеет большее наполнение кадра по сравнению с другим WEB-DL.

Сравнения:

Сравнение с исходником:
 

Вложения

  • 55,3 KB Просмотры: 0
    Личеров 0
    Сидеров 0
    Файлов 1
    Объем 10,9 GB

Привет!

Мы группа людей которые решили помочь другим в решении их проблем, а так же пользователям с поиском самых свежих и качественных инфопродуктов. За 4 с небольшим месяца мы создали этот форум на который заходят ежедневно тысячи человек и посещаемость постоянно растёт. Мы создали панель лицензирования для защиты PHP скриптов от воровства и SEO панель для мониторинга наших сайтов и выбора верной стратегии их развития. Мы надеемся что то что мы создали пригодится Вам и возможно Вы поможете нам развиваться и совершенствоваться вместе с Вами.

Статистика форума

Темы
406.656
Сообщения
465.106
Пользователи
84.673
Новый пользователь
cltdyj

Приложения форума для iOS и Android


У ркн там нет власти ;)
Приватные разговоры
Помощь Пользователи
    Вы не присоединились ни к одной комнате.