За последнюю неделю опубликовано 103 новых материалов.
Инструкция новичку Путеводитель по форуму Прокси для Telegram Показать подсказки , это бомба!

Скачать Авантюристы / Les morfalous (1984) BDRemux 1080p | A, P, P2 бесплатно через торрент

  • Поучаствуй (в качестве покупателя) в любых пяти совместных покупках (кроме завершённых и "Моментальных") и получи группу "Новичок" навсегда -> ссылка на раздел
  • Получай до 480 рублей за каждого приглашенного пользователя!
    представляем Вам очередное расширение партнерской программы, подробности описаны тут -> ссылка
  • 90% материалов доступно к скачиванию после простой регистрации!
    Если же ты хочешь скачивать материалы без требования оставлять отзывы то получи группу "Новичок", 10 способов повышения описаны тут -> ссылка
  • К сожалению количество битых ссылок растет и мы уже не можем их оперативно восстанавливать поэтому просим помощи у каждого нашего пользователя.
    С сегодняшнего дня, за каждую восстановленную ссылку мы заплатим Вам.
    Подробнее тут -> ссылка
  • Перенесем твои заслуги с другого ресурса!
    Мы понимаем как сложно прокачивать аккаунты на форумах, вроде раскачал аккаунт, а тут появляется ресурс в 100 раз круче но тоже с системой прокачки и снова качать аккаунт...
    Предлагаем вам перенести Ваши заслуги на другом подобном ресурсе к нам.
    Подробности описаны тут -> ссылка
  • Вы можете получать по 2.5% с каждой покупки и продажи на маркете! Подробности в теме Партнёрская программа
Если Вы не хотите скачивать, Вы всегда можетепосмотретьонлайн, просто нажмите кнопку ниже :

Открыть плеер

Torrent_Bot

Торрент-Бот
Бот форума
4 Окт 2016
124
96
20

Название: Авантюристы / Стервятники
Оригинальное название: Les morfalous
Год выхода: 1984
Жанр: боевик, триллер, драма, комедия, военный
Режиссер: Анри Вернёй
В ролях: Жан-Поль Бельмондо, Жак Вильре, Мишель Константен, Мишель Кретон, Маттиас Хабих, Франсуа Перро, Морис Озель, Жерар Бур, Джуниор Джон Дэвид, Робер Ломбар, Мари Лафоре...


О фильме:
Маленькая такая заварушка случилась в маленьком тунисском городке Эль Ксуре в апреле 1943-года. Французские части выбили немцев из городка, и в нем не осталось ни одной живой души, кроме подразделения старшины Моюзара.

Оно должно было переправить золотые слитки из местного банка в Суэц. Но, увидев золото, подчиненные, особенно сержант Пьер Оганер, моментально забыли о своем гражданском долге и патриотизме…



Страна: Франция
Продолжительность: 01:46:23
Перевод: Авторский (одноголосый), профессиональный (многоголосый), профессиональный (двухголосый)


Качество: BDRemux 1080p
Видео: MPEG-4 AVC, 1920x1080 (16:9), 35.0 Mbps, 24.000 fps
Звук:
№ 1: DTS-HD MA | 2.0 | 48.0 kHz | 1046 kbps - АвторскийМихаил Яроцкий 'kyberpunk'
№ 2: AC3 | 2.0 | 48.0 kHz | 192 kbps - Многоголосый, закадровыйТРК "Останкино"
№ 3: AC3 | 2.0 | 48.0 kHz | 192 kbps - Двухголосый, закадровый
№ 4: DTS-HD MA | 2.0 | 48.0 kHz | 934 kbps - French
Субтитры: французские

MI
General
Unique ID : 269595061781975822485843325772315210193 (0xCAD21EC7AFE61A019D7157BE8DFBB1D1)
Complete name : C:MKV-iP27Les.morfalous.1984.BDRemux.[iP27].mkv
Format : Matroska
Format version : Version 4
File size : 27.8 GiB
Duration : 1 h 46 min
Overall bit rate mode : Variable
Overall bit rate : 37.4 Mb/s
Movie name : Les morfalous (Авантюристы / Стервятники) 1984 - [iP27]
Encoded date : UTC 2020-01-09 10:48:03
Writing application : mkvmerge v42.0.0 ('Overtime') 64-bit
Writing library : libebml v1.3.10 + libmatroska v1.5.2

Video
ID : 1
Format : AVC
Format/Info : Advanced Video Codec
Format profile : High@L4.1
Format settings : CABAC / 2 Ref Frames
Format settings, CABAC : Yes
Format settings, Reference frames : 2 frames
Codec ID : V_MPEG4/ISO/AVC
Duration : 1 h 46 min
Bit rate mode : Variable
Bit rate : 35.0 Mb/s
Width : 1 920 pixels
Height : 1 080 pixels
Display aspect ratio : 16:9
Frame rate mode : Constant
Frame rate : 24.000 FPS
Color space : YUV
Chroma subsampling : 4:2:0
Bit depth : 8 bits
Scan type : Progressive
Bits/(Pixel*Frame) : 0.703
Stream size : 26.0 GiB (94%)
Title : Les morfalous 1984 1080p Blu-ray AVC DTS-HD MA 2.0
Language : French
Default : Yes
Forced : No

Audio #1
ID : 2
Format : DTS XLL
Format/Info : Digital Theater Systems
Commercial name : DTS-HD Master Audio
Codec ID : A_DTS
Duration : 1 h 46 min
Bit rate mode : Variable
Bit rate : 1 046 kb/s
Channel(s) : 2 channels
Channel layout : L R
Sampling rate : 48.0 kHz
Frame rate : 93.750 FPS (512 SPF)
Bit depth : 16 bits
Compression mode : Lossless
Stream size : 796 MiB (3%)
Title : AVO (М. Яроцкий 'kyberpunk')
Language : Russian
Default : Yes
Forced : No

Audio #2
ID : 3
Format : AC-3
Format/Info : Audio Coding 3
Commercial name : Dolby Digital
Codec ID : A_AC3
Duration : 1 h 46 min
Bit rate mode : Constant
Bit rate : 192 kb/s
Channel(s) : 2 channels
Channel layout : L R
Sampling rate : 48.0 kHz
Frame rate : 31.250 FPS (1536 SPF)
Compression mode : Lossy
Stream size : 146 MiB (1%)
Title : MVO (ТРК "Останкино")
Language : Russian
Service kind : Complete Main
Default : No
Forced : No

Audio #3
ID : 4
Format : AC-3
Format/Info : Audio Coding 3
Commercial name : Dolby Digital
Codec ID : A_AC3
Duration : 1 h 46 min
Bit rate mode : Constant
Bit rate : 192 kb/s
Channel(s) : 2 channels
Channel layout : L R
Sampling rate : 48.0 kHz
Frame rate : 31.250 FPS (1536 SPF)
Compression mode : Lossy
Stream size : 146 MiB (1%)
Title : DVO
Language : Russian
Service kind : Complete Main
Default : No
Forced : No

Audio #4
ID : 5
Format : DTS XLL
Format/Info : Digital Theater Systems
Commercial name : DTS-HD Master Audio
Codec ID : A_DTS
Duration : 1 h 46 min
Bit rate mode : Variable
Bit rate : 934 kb/s
Channel(s) : 2 channels
Channel layout : L R
Sampling rate : 48.0 kHz
Frame rate : 93.750 FPS (512 SPF)
Bit depth : 24 bits
Compression mode : Lossless
Stream size : 711 MiB (3%)
Title : Original
Language : French
Default : No
Forced : No

Text
ID : 6
Format : PGS
Muxing mode : zlib
Codec ID : S_HDMV/PGS
Codec ID/Info : Picture based subtitle format used on BDs/HD-DVDs
Duration : 1 h 46 min
Bit rate : 27.3 kb/s
Count of elements : 2088
Stream size : 20.8 MiB (0%)
Language : French
Default : Yes
Forced : No

Menu
00:00:00.000 : en:Chapter 01 / en:Chapter 02
00:08:37.750 : en:Chapter 03
00:19:46.291 : en:Chapter 04
00:29:44.666 : en:Chapter 05
00:35:27.041 : en:Chapter 06
00:45:02.708 : en:Chapter 07
00:53:20.500 : en:Chapter 08
01:02:33.666 : en:Chapter 09
01:14:02.166 : en:Chapter 10
01:23:19.791 : en:Chapter 11
01:32:46.625 : en:Chapter 12
01:37:40.416 : en:Chapter 13
Скриншоты
Примечание
Перевод М. Яроцкого доступен благодаря будулайроманову. Работа со звуком - Скажутин.
Работа с дорогами №№ 2-3 - Нордер.
 

Вложения

  • 70,3 KB Просмотры: 0
    Личеров 0
    Сидеров 0
    Файлов 1
    Объем 27,8 GB
Ваш e-mail не будет опубликован. Он потребуется для подтверждения Вашего поста.
Оформление текста Нажмите «Ввод», чтобы отправить ответ.

Привет!

Мы группа людей которые решили помочь другим в решении их проблем, а так же пользователям с поиском самых свежих и качественных инфопродуктов. За 4 с небольшим месяца мы создали этот форум на который заходят ежедневно тысячи человек и посещаемость постоянно растёт. Мы создали панель лицензирования для защиты PHP скриптов от воровства и SEO панель для мониторинга наших сайтов и выбора верной стратегии их развития. Мы надеемся что то что мы создали пригодится Вам и возможно Вы поможете нам развиваться и совершенствоваться вместе с Вами.

Статистика форума

Темы
378.796
Сообщения
418.335
Пользователи
50.359
Новый пользователь
d3rv1sh

Приложения форума для iOS и Android


У ркн там нет власти ;)
Приватные разговоры
Помощь Пользователи
    Вы не присоединились ни к одной комнате.