За последнюю неделю опубликовано 57 новых материалов.
Инструкция новичку Путеводитель по форуму Прокси для Telegram Показать подсказки , это бомба!

Скачать Аванпост (2019) HDRip-AVC | Лицензия бесплатно через торрент

  • Поучаствуй (в качестве покупателя) в любых пяти совместных покупках (кроме завершённых и "Моментальных") и получи группу "Новичок" навсегда -> ссылка на раздел
  • Получай до 480 рублей за каждого приглашенного пользователя!
    представляем Вам очередное расширение партнерской программы, подробности описаны тут -> ссылка
  • 90% материалов доступно к скачиванию после простой регистрации!
    Если же ты хочешь скачивать материалы без требования оставлять отзывы то получи группу "Новичок", 10 способов повышения описаны тут -> ссылка
  • К сожалению количество битых ссылок растет и мы уже не можем их оперативно восстанавливать поэтому просим помощи у каждого нашего пользователя.
    С сегодняшнего дня, за каждую восстановленную ссылку мы заплатим Вам.
    Подробнее тут -> ссылка
  • Перенесем твои заслуги с другого ресурса!
    Мы понимаем как сложно прокачивать аккаунты на форумах, вроде раскачал аккаунт, а тут появляется ресурс в 100 раз круче но тоже с системой прокачки и снова качать аккаунт...
    Предлагаем вам перенести Ваши заслуги на другом подобном ресурсе к нам.
    Подробности описаны тут -> ссылка
  • Вы можете получать по 2.5% с каждой покупки и продажи на маркете! Подробности в теме Партнёрская программа
Если Вы не хотите скачивать, Вы всегда можетепосмотретьонлайн, просто нажмите кнопку ниже :

Открыть плеер

Torrent_Bot

Торрент-Бот
Бот форума
4 Окт 2016
92
163
20



Информация о фильме
Название: Аванпост
Год выхода: 2019
Жанр: Триллер, фантастика, боевик
Режиссер: Егор Баранов
В ролях: Лукерья Ильяшенко, Пётр Фёдоров, Светлана Иванова, Алексей Чадов, Ксения Кутепова, Константин Лавроненко, Филипп Авдеев, Артем Маркарьян, Сергей Годин, Артем Ткаченко

О фильме:
В недалеком будущем что-то произошло. Связь с большей частью населенных пунктов Земли оборвалась. Космонавты передали с орбиты, что видят сверху небольшое пятно в Восточной Европе, по своим очертаниям напоминающее круг. То, что военные находят за границей этого круга, шокирует. В магазинах, в автомобилях, на дорогах, в зданиях больниц и вокзалов, повсюду — следы столкновений. Кто или что уничтожает все живое? И как долго продержится последний аванпост человечества?




Страна: Россия
Студия: «1-2-3 Production», «TNT-Premier», Канал «ТВ-3»
Продолжительность: 02:07:30
Перевод: Не требуется

Файл
Кодек: x.264
Качество: HDRip-AVC
Видео: AVC, 720x302 (2.40:1), 23.976 fps, 803 kb/s
Звук: AAC, 48.0 kHz, 2 ch, 124 kb/s
Субтитры: Отсутствуют


ОтчетМедиаИнфо
General
Unique ID : 214775267410539755596071281930617223421 (0xA194363DE5A298D7A0CEA72F5B07F8FD)
Complete name : The Blackout.2020.AVC.mkv
Format : Matroska
Format version : Version 4
File size : 848 MiB
Duration : 2 h 7 min
Overall bit rate : 929 kb/s
Encoded date : UTC 2020-05-27 12:42:12
Writing application : mkvmerge v8.3.0 ('Over the Horizon') 64bit
Writing library : libebml v1.3.1 + libmatroska v1.4.2

Video
ID : 1
Format : AVC
Format/Info : Advanced Video Codec
Format profile : [email protected]
Format settings : CABAC / 8 Ref Frames
Format settings, CABAC : Yes
Format settings, ReFrames : 8 frames
Codec ID : V_MPEG4/ISO/AVC
Duration : 2 h 7 min
Bit rate : 803 kb/s
Width : 720 pixels
Height : 302 pixels
Display aspect ratio : 2.40:1
Frame rate mode : Constant
Frame rate : 23.976 (24000/1001) FPS
Color space : YUV
Chroma subsampling : 4:2:0
Bit depth : 8 bits
Scan type : Progressive
Bits/(Pixel*Frame) : 0.154
Stream size : 732 MiB (86%)
Writing library : x264 core 160 r3000 33f9e14
Encoding settings : cabac=1 / ref=8 / deblock=1:-3:-3 / analyse=0x3:0x133 / me=umh / subme=9 / psy=1 / psy_rd=1.00:0.00 / mixed_ref=1 / me_range=16 / chroma_me=1 / trellis=2 / 8x8dct=1 / cqm=0 / deadzone=21,11 / fast_pskip=0 / chroma_qp_offset=-2 / threads=9 / lookahead_threads=1 / sliced_threads=0 / nr=0 / decimate=1 / interlaced=0 / bluray_compat=0 / constrained_intra=0 / bframes=3 / b_pyramid=2 / b_adapt=2 / b_bias=0 / direct=3 / weightb=1 / open_gop=0 / weightp=2 / keyint=240 / keyint_min=23 / scenecut=40 / intra_refresh=0 / rc=crf / mbtree=0 / crf=19.0 / qcomp=0.60 / qpmin=0 / qpmax=69 / qpstep=4 / ip_ratio=1.40 / pb_ratio=1.30 / aq=1:0.90
Default : Yes
Forced : No
Color range : Limited
Matrix coefficients : BT.709

Audio
ID : 2
Format : AAC LC
Format/Info : Advanced Audio Codec Low Complexity
Codec ID : A_AAC-2
Duration : 2 h 7 min
Bit rate : 124 kb/s
Channel(s) : 2 channels
Channel layout : L R
Sampling rate : 48.0 kHz
Frame rate : 46.875 FPS (1024 SPF)
Compression mode : Lossy
Delay relative to video : 9 ms
Stream size : 113 MiB (13%)
Title : Russian
Language : Russian
Default : Yes
Forced : No
Скриншоты
 

Вложения

  • 34 KB Просмотры: 0
    Личеров 0
    Сидеров 0
    Файлов 1
    Объем 847,6 MB

Привет!

Мы группа людей которые решили помочь другим в решении их проблем, а так же пользователям с поиском самых свежих и качественных инфопродуктов. За 4 с небольшим месяца мы создали этот форум на который заходят ежедневно тысячи человек и посещаемость постоянно растёт. Мы создали панель лицензирования для защиты PHP скриптов от воровства и SEO панель для мониторинга наших сайтов и выбора верной стратегии их развития. Мы надеемся что то что мы создали пригодится Вам и возможно Вы поможете нам развиваться и совершенствоваться вместе с Вами.

Статистика форума

Темы
406.699
Сообщения
465.163
Пользователи
84.817
Новый пользователь
Lairi

Приложения форума для iOS и Android


У ркн там нет власти ;)
Приватные разговоры
Помощь Пользователи
    Вы не присоединились ни к одной комнате.