За последнюю неделю опубликовано 52 новых материалов.
Инструкция новичку Путеводитель по форуму Прокси для Telegram Показать подсказки , это бомба!

Скачать Атака пауков / Eight Legged Freaks (2002) WEB-DL 1080p | D, P, A, L1 бесплатно через торрент

  • Поучаствуй (в качестве покупателя) в любых пяти совместных покупках (кроме завершённых и "Моментальных") и получи группу "Новичок" навсегда -> ссылка на раздел
  • Получай до 480 рублей за каждого приглашенного пользователя!
    представляем Вам очередное расширение партнерской программы, подробности описаны тут -> ссылка
  • 90% материалов доступно к скачиванию после простой регистрации!
    Если же ты хочешь скачивать материалы без требования оставлять отзывы то получи группу "Новичок", 10 способов повышения описаны тут -> ссылка
  • К сожалению количество битых ссылок растет и мы уже не можем их оперативно восстанавливать поэтому просим помощи у каждого нашего пользователя.
    С сегодняшнего дня, за каждую восстановленную ссылку мы заплатим Вам.
    Подробнее тут -> ссылка
  • Перенесем твои заслуги с другого ресурса!
    Мы понимаем как сложно прокачивать аккаунты на форумах, вроде раскачал аккаунт, а тут появляется ресурс в 100 раз круче но тоже с системой прокачки и снова качать аккаунт...
    Предлагаем вам перенести Ваши заслуги на другом подобном ресурсе к нам.
    Подробности описаны тут -> ссылка
  • Вы можете получать по 2.5% с каждой покупки и продажи на маркете! Подробности в теме Партнёрская программа
Если Вы не хотите скачивать, Вы всегда можетепосмотретьонлайн, просто нажмите кнопку ниже :

Открыть плеер

Torrent_Bot

Торрент-Бот
Бот форума
4 Окт 2016
91
163
20



Информация о фильме
Название: Атака пауков
Оригинальное название: Eight Legged Freaks
Год выхода: 2002
Жанр: ужасы, фантастика, боевик, триллер, комедия
Режиссер: Эллори Элкайем
В ролях: Дэвид Аркетт, Кари Вурер, Скотт Терра, Скарлетт Йоханссон, Даг Э. Даг, Рик Овертон, Леон Риппи, Мэтт Чукри, Джей Арлен Джонс, Айлин Райан

О фильме:
С грузовика, везущего опасные химические вещества, случайно падает один из контейнеров. Вещества из контейнера разливаются в озеро, нарушая его экологическую систему. Но неприятности только начинаются. Один энтомолог из расположенного неподалеку маленького городка начинает кормить своих экзотических пауков насекомыми из загрязненного озера, которые для пауков являются своеобразными «стероидами».Пауки начинают быстро расти, становясь больше людей. Огромные мохнатые пауки голодны, и они начинают охотиться на жителей городка. Горожане, вооружившись лыжными палками и циркулярными пилами пытаются оказать сопротивление гигантским насекомым…



Страна: США, Австралия
Студия: Centropolis Entertainment, Electric Entertainment, NPV Entertainment, Village Roadshow Pictures, Warner Bros. Pictures
Продолжительность: 01:39:17
Перевод: Дублированный, профессиональный многоголосый, авторский одноголосый
Субтитры: Английские

Файл
Кодек: H.264
Качество: WEB-DL 1080p
Видео: MPEG-4 AVC, 13200 Кбит/с, 1920x816, 23.976 fps
Аудио 1: Russian; AC3; 48.0 KHz; 6ch; 448 Kbps | DUB Мосфильм-Мастер
Аудио 2: Russian; AC3; 48.0 KHz; 6ch; 384 Kbps | MVO Карусель
Аудио 3: Russian; AC3; 48.0 KHz; 6ch; 384 Kbps | AVO Юрий Живов
Аудио 4: Russian; AC3; 48.0 KHz; 2ch; 192 Kbps | AVO Антон Карповский
Аудио 5: Russian; AC3; 48.0 KHz; 6ch; 384 Kbps | VO Валерий Рукин
Аудио 6: English; EAC3; 48.0 KHz; 2ch; 224 Kbps | Original

MI
General
Unique ID : 283713926067292009129416100418734594826 (0xD5715088A8F7029995A0BF765A951B0A)
Complete name : G:nripsEight.Legged.Freaks.2002.WEBRip.1080p.mkv
Format : Matroska
Format version : Version 4 / Version 2
File size : 10.5 GiB
Duration : 1 h 39 min
Overall bit rate mode : Variable
Overall bit rate : 15.2 Mb/s
Movie name : Eight.Legged.Freaks.2002.720p.WEBRip.DTS5.1.x264-BQF
Encoded date : UTC 2018-08-13 06:06:10
Writing application : mkvmerge v25.0.0 ('Prog Noir') 64-bit
Writing library : libebml v1.3.6 + libmatroska v1.4.9

Video
ID : 1
Format : AVC
Format/Info : Advanced Video Codec
Format profile : [email protected]
Format settings : CABAC / 4 Ref Frames
Format settings, CABAC : Yes
Format settings, ReFrames : 4 frames
Codec ID : V_MPEG4/ISO/AVC
Duration : 1 h 39 min
Bit rate mode : Variable
Bit rate : 13.2 Mb/s
Maximum bit rate : 15.0 Mb/s
Width : 1 920 pixels
Height : 816 pixels
Display aspect ratio : 2.35:1
Frame rate mode : Constant
Frame rate : 23.976 (24000/1001) FPS
Color space : YUV
Chroma subsampling : 4:2:0
Bit depth : 8 bits
Scan type : Progressive
Bits/(Pixel*Frame) : 0.350
Stream size : 9.13 GiB (87%)
Title : Eight.Legged.Freaks.2002.1080p.WEBRip.DD2.x264-BQF
Writing library : x264 core 148 r2623 d5b2374
Encoding settings : cabac=1 / ref=4 / deblock=1:-1:-1 / analyse=0x3:0x133 / me=umh / subme=9 / psy=1 / psy_rd=1.00:0.15 / mixed_ref=1 / me_range=24 / chroma_me=1 / trellis=2 / 8x8dct=1 / cqm=0 / deadzone=21,11 / fast_pskip=1 / chroma_qp_offset=-3 / threads=25 / lookahead_threads=4 / sliced_threads=0 / nr=150 / decimate=1 / interlaced=0 / bluray_compat=0 / constrained_intra=0 / bframes=8 / b_pyramid=2 / b_adapt=2 / b_bias=0 / direct=3 / weightb=1 / open_gop=0 / weightp=2 / keyint=120 / keyint_min=61 / scenecut=0 / intra_refresh=0 / rc_lookahead=120 / rc=crf / mbtree=1 / crf=18.0 / qcomp=0.60 / qpmin=0 / qpmax=69 / qpstep=4 / vbv_maxrate=15000 / vbv_bufsize=31250 / crf_max=0.0 / nal_hrd=vbr / filler=0 / ip_ratio=1.40 / aq=3:1.00
Default : Yes
Forced : No
Color range : Limited
Color primaries : BT.709
Transfer characteristics : BT.709
Matrix coefficients : BT.709

Audio #1
ID : 2
Format : AC-3
Format/Info : Audio Coding 3
Codec ID : A_AC3
Duration : 1 h 39 min
Bit rate mode : Constant
Bit rate : 448 kb/s
Channel(s) : 6 channels
Channel positions : Front: L C R, Side: L R, LFE
Sampling rate : 48.0 kHz
Frame rate : 31.250 FPS (1536 SPF)
Bit depth : 16 bits
Compression mode : Lossy
Stream size : 318 MiB (3%)
Title : DUB Мосфильм-Мастер
Language : Russian
Service kind : Complete Main
Default : Yes
Forced : No

Audio #2
ID : 3
Format : AC-3
Format/Info : Audio Coding 3
Codec ID : A_AC3
Duration : 1 h 39 min
Bit rate mode : Constant
Bit rate : 384 kb/s
Channel(s) : 6 channels
Channel positions : Front: L C R, Side: L R, LFE
Sampling rate : 48.0 kHz
Frame rate : 31.250 FPS (1536 SPF)
Bit depth : 16 bits
Compression mode : Lossy
Stream size : 273 MiB (3%)
Title : MVO Карусель
Language : Russian
Service kind : Complete Main
Default : No
Forced : No

Audio #3
ID : 4
Format : AC-3
Format/Info : Audio Coding 3
Codec ID : A_AC3
Duration : 1 h 39 min
Bit rate mode : Constant
Bit rate : 384 kb/s
Channel(s) : 6 channels
Channel positions : Front: L C R, Side: L R, LFE
Sampling rate : 48.0 kHz
Frame rate : 31.250 FPS (1536 SPF)
Bit depth : 16 bits
Compression mode : Lossy
Stream size : 273 MiB (3%)
Title : AVO Живов
Language : Russian
Service kind : Complete Main
Default : No
Forced : No

Audio #4
ID : 5
Format : AC-3
Format/Info : Audio Coding 3
Codec ID : A_AC3
Duration : 1 h 39 min
Bit rate mode : Constant
Bit rate : 192 kb/s
Channel(s) : 2 channels
Channel positions : Front: L R
Sampling rate : 48.0 kHz
Frame rate : 31.250 FPS (1536 SPF)
Bit depth : 16 bits
Compression mode : Lossy
Stream size : 136 MiB (1%)
Title : AVO Карповский
Language : Russian
Service kind : Complete Main
Default : No
Forced : No

Audio #5
ID : 6
Format : AC-3
Format/Info : Audio Coding 3
Codec ID : A_AC3
Duration : 1 h 39 min
Bit rate mode : Constant
Bit rate : 384 kb/s
Channel(s) : 6 channels
Channel positions : Front: L C R, Side: L R, LFE
Sampling rate : 48.0 kHz
Frame rate : 31.250 FPS (1536 SPF)
Bit depth : 16 bits
Compression mode : Lossy
Stream size : 273 MiB (3%)
Title : AVO Рукин
Language : Russian
Service kind : Complete Main
Default : No
Forced : No

Audio #6
ID : 7
Format : E-AC-3
Format/Info : Enhanced Audio Coding 3
Codec ID : A_EAC3
Duration : 1 h 39 min
Bit rate mode : Constant
Bit rate : 224 kb/s
Channel(s) : 2 channels
Channel positions : Front: L R
Sampling rate : 48.0 kHz
Frame rate : 187.500 FPS (256 SPF)
Compression mode : Lossy
Stream size : 159 MiB (1%)
Title : DD+2.0
Language : English
Service kind : Complete Main
Default : No
Forced : No

Text
ID : 8
Format : UTF-8
Codec ID : S_TEXT/UTF8
Codec ID/Info : UTF-8 Plain Text
Duration : 1 h 34 min
Bit rate : 48 b/s
Count of elements : 1492
Stream size : 33.3 KiB (0%)
Title : SRT
Language : English
Default : No
Forced : No

Menu
00:00:00.000 : en:Wake up, Prosperity.
00:03:39.000 : en:Arac attack.
00:08:14.000 : en:Welcome home.
00:11:16.000 : en:Ticket not to ride.
00:14:12.000 : en:Scene of a misdemeanor.
00:17:44.000 : en:Catastrophe.
00:20:03.000 : en:Telling Sam.
00:25:10.000 : en:Never believe the kid.
00:27:58.000 : en:Exactly the problem.
00:31:33.000 : en:Ostrich meat.
00:34:49.000 : en:Close shaves.
00:38:17.000 : en:They're coming!
00:42:19.000 : en:Gladys enmeshed.
00:45:47.000 : en:Siege at Sam's.
00:49:30.000 : en:Bob?!?
00:51:58.000 : en:Splat goes the jumper.
00:54:51.000 : en:Trailer trashing.
00:59:24.000 : en:Downtown invasion.
01:03:01.000 : en:Mall mayhem.
01:05:34.000 : en:Armed and fragrant.
01:08:53.000 : en:They're here.
01:11:18.000 : en:Slice 'n' dice.
01:15:25.000 : en:Close quarters.
01:19:43.000 : en:Into the mines.
01:23:35.000 : en:Cocoon chamber.
01:27:23.000 : en:Spider queen.
01:30:13.000 : en:Giving it the gas.
01:33:09.000 : en:The truth.
01:35:29.000 : en:End credits.
Скриншоты

 

Вложения

  • 106,2 KB Просмотры: 1
    Личеров 0
    Сидеров 0
    Файлов 1
    Объем 10,5 GB

Привет!

Мы группа людей которые решили помочь другим в решении их проблем, а так же пользователям с поиском самых свежих и качественных инфопродуктов. За 4 с небольшим месяца мы создали этот форум на который заходят ежедневно тысячи человек и посещаемость постоянно растёт. Мы создали панель лицензирования для защиты PHP скриптов от воровства и SEO панель для мониторинга наших сайтов и выбора верной стратегии их развития. Мы надеемся что то что мы создали пригодится Вам и возможно Вы поможете нам развиваться и совершенствоваться вместе с Вами.

Статистика форума

Темы
410.533
Сообщения
469.092
Пользователи
86.011
Новый пользователь
lokasur

Приложения форума для iOS и Android


У ркн там нет власти ;)
Приватные разговоры
Помощь Пользователи
    Вы не присоединились ни к одной комнате.