За последнюю неделю опубликовано 101 новых материалов.
Инструкция новичку Путеводитель по форуму Прокси для Telegram Показать подсказки , это бомба!

Скачать Астрал: Новое измерение / Astral (2018) WEB-DL 1080p | iTunes бесплатно через торрент

  • Поучаствуй (в качестве покупателя) в любых пяти совместных покупках (кроме завершённых и "Моментальных") и получи группу "Новичок" навсегда -> ссылка на раздел
  • Получай до 480 рублей за каждого приглашенного пользователя!
    представляем Вам очередное расширение партнерской программы, подробности описаны тут -> ссылка
  • 90% материалов доступно к скачиванию после простой регистрации!
    Если же ты хочешь скачивать материалы без требования оставлять отзывы то получи группу "Новичок", 10 способов повышения описаны тут -> ссылка
  • К сожалению количество битых ссылок растет и мы уже не можем их оперативно восстанавливать поэтому просим помощи у каждого нашего пользователя.
    С сегодняшнего дня, за каждую восстановленную ссылку мы заплатим Вам.
    Подробнее тут -> ссылка
  • Перенесем твои заслуги с другого ресурса!
    Мы понимаем как сложно прокачивать аккаунты на форумах, вроде раскачал аккаунт, а тут появляется ресурс в 100 раз круче но тоже с системой прокачки и снова качать аккаунт...
    Предлагаем вам перенести Ваши заслуги на другом подобном ресурсе к нам.
    Подробности описаны тут -> ссылка
  • Вы можете получать по 2.5% с каждой покупки и продажи на маркете! Подробности в теме Партнёрская программа
Если Вы не хотите скачивать, Вы всегда можетепосмотретьонлайн, просто нажмите кнопку ниже :

Открыть плеер

Torrent_Bot

Торрент-Бот
Бот форума
4 Окт 2016
102
153
20



Информация о фильме
Название: Астрал: Новое измерение
Оригинальное название: Astral
Год выхода: 2018
Жанр: Ужасы, фантастика, триллер, драма
Режиссер: Крис Мул
В ролях: Фрэнк Диллэйн, Катрин Стэдмен, Ванесса Грасс, Демсон Идрис, Тревор Уайт, Дарвин Шоу, Нед Портеус, Марк Аикен, Джульетт Хоуланд, Дженнифер Брук, Дауд Шах

О фильме:
Когда Алекс был маленьким, его мать, только выйдя из психиатрической клиники, повесилась у себя дома. Студентом парень изучает астральное тело и пытается практиковать астральную проекцию, чтобы связаться с погибшей матерью.



Страна: Великобритания
Студия: Craven Street
Продолжительность: 01:23:24
Перевод: Дублированный | iTunes

Файл
Кодек: AVC
Качество: WEB-DL 1080p | Astral.2018.1080p.AMZN.WEB-DL.DDP5.1.H.264-NTG
Видео: MPEG-4 AVC, 8836 Kбит/с, 1920x800, 23.976 кадр/с
Аудио #1: Русский (АС3, 6ch, 384 Кбит/с, 48.0 KHz) Профессиональный (дублированный) iTunes
Аудио #2: Английский (E-АС3, 6ch, 256 Кбит/с, 48.0 KHz)
Субтитры: Английские (*srt)
Трейлер
MediaInfo
Источник: Astral.2018.1080p.AMZN.WEB-DL.DDP5.1.H.264-NTG
General
Unique ID : 251852777731024909613093564251248838379 (0xBD7914A392BAB652B4CF5E1DF7F0C6EB)
Complete name : Astral.2018.AMZN.WEB-DL.1080p.mkv
Format : Matroska
Format version : Version 4
File size : 5.52 GiB
Duration : 1 h 23 min
Overall bit rate : 9 478 kb/s
Encoded date : UTC 2019-06-11 11:01:38
Writing application : mkvmerge v7.1.0 ('Good Love') 64bit built on Jul 27 2014 13:06:55
Writing library : libebml v1.3.0 + libmatroska v1.4.1

Video
ID : 1
Format : AVC
Format/Info : Advanced Video Codec
Format profile : High@L4
Format settings : CABAC / 4 Ref Frames
Format settings, CABAC : Yes
Format settings, Reference fra : 4 frames
Format settings, GOP : M=4, N=48
Codec ID : V_MPEG4/ISO/AVC
Duration : 1 h 23 min
Bit rate mode : Constant
Bit rate : 8 836 kb/s
Nominal bit rate : 10 000 kb/s
Width : 1 920 pixels
Height : 800 pixels
Display aspect ratio : 2.40:1
Frame rate mode : Constant
Frame rate : 23.976 (24000/1001) FPS
Color space : YUV
Chroma subsampling : 4:2:0
Bit depth : 8 bits
Scan type : Progressive
Bits/(Pixel*Frame) : 0.240
Stream size : 5.15 GiB (93%)
Language : English
Default : Yes
Forced : No
Color range : Limited
Color primaries : BT.709
Transfer characteristics : BT.709
Matrix coefficients : BT.709

Audio #1
ID : 2
Format : AC-3
Format/Info : Audio Coding 3
Commercial name : Dolby Digital
Codec ID : A_AC3
Duration : 1 h 23 min
Bit rate mode : Constant
Bit rate : 384 kb/s
Channel(s) : 6 channels
Channel layout : L R C LFE Ls Rs
Sampling rate : 48.0 kHz
Frame rate : 31.250 FPS (1536 SPF)
Bit depth : 16 bits
Compression mode : Lossy
Stream size : 229 MiB (4%)
Title : DUB | iTunes
Language : Russian
Service kind : Complete Main
Default : Yes
Forced : No

Audio #2
ID : 3
Format : E-AC-3
Format/Info : Enhanced AC-3
Commercial name : Dolby Digital Plus
Codec ID : A_EAC3
Duration : 1 h 23 min
Bit rate mode : Constant
Bit rate : 256 kb/s
Channel(s) : 6 channels
Channel layout : L R C LFE Ls Rs
Sampling rate : 48.0 kHz
Frame rate : 31.250 FPS (1536 SPF)
Compression mode : Lossy
Stream size : 153 MiB (3%)
Language : English
Service kind : Complete Main
Default : No
Forced : No

Text
ID : 4
Format : UTF-8
Codec ID : S_TEXT/UTF8
Codec ID/Info : UTF-8 Plain Text
Duration : 1 h 19 min
Bit rate : 43 b/s
Count of elements : 768
Stream size : 25.7 KiB (0%)
Title : SDH
Language : English
Default : No
Forced : No

Menu
00:00:00.000 : en:Chapter 1
00:05:12.478 : en:Chapter 2
00:12:18.612 : en:Chapter 3
00:18:02.205 : en:Chapter 4
00:24:10.198 : en:Chapter 5
00:28:19.864 : en:Chapter 6
00:32:43.044 : en:Chapter 7
00:37:38.922 : en:Chapter 8
00:44:32.960 : en:Chapter 9
00:47:23.507 : en:Chapter 10
00:50:18.223 : en:Chapter 11
00:53:42.844 : en:Chapter 12
00:57:35.243 : en:Chapter 13
01:03:03.571 : en:Chapter 14
01:10:59.755 : en:Chapter 15
01:16:46.268 : en:Chapter 16
Скриншоты
 

Вложения

  • 14,7 KB Просмотры: 1
    Личеров 0
    Сидеров 0
    Файлов 1
    Объем 5,5 GB

Привет!

Мы группа людей которые решили помочь другим в решении их проблем, а так же пользователям с поиском самых свежих и качественных инфопродуктов. За 4 с небольшим месяца мы создали этот форум на который заходят ежедневно тысячи человек и посещаемость постоянно растёт. Мы создали панель лицензирования для защиты PHP скриптов от воровства и SEO панель для мониторинга наших сайтов и выбора верной стратегии их развития. Мы надеемся что то что мы создали пригодится Вам и возможно Вы поможете нам развиваться и совершенствоваться вместе с Вами.

Статистика форума

Темы
404.614
Сообщения
461.523
Пользователи
80.369
Новый пользователь
Карина1213

Приложения форума для iOS и Android


У ркн там нет власти ;)
Приватные разговоры
Помощь Пользователи
    Вы не присоединились ни к одной комнате.