За последнюю неделю опубликовано 121 новых материалов.
Инструкция новичку Путеводитель по форуму Прокси для Telegram Показать подсказки , это бомба!

Скачать Артистка (2007) WEBRip-AVC от KORSAR бесплатно через торрент

  • Поучаствуй (в качестве покупателя) в любых пяти совместных покупках (кроме завершённых и "Моментальных") и получи группу "Новичок" навсегда -> ссылка на раздел
  • Получай до 480 рублей за каждого приглашенного пользователя!
    представляем Вам очередное расширение партнерской программы, подробности описаны тут -> ссылка
  • 90% материалов доступно к скачиванию после простой регистрации!
    Если же ты хочешь скачивать материалы без требования оставлять отзывы то получи группу "Новичок", 10 способов повышения описаны тут -> ссылка
  • К сожалению количество битых ссылок растет и мы уже не можем их оперативно восстанавливать поэтому просим помощи у каждого нашего пользователя.
    С сегодняшнего дня, за каждую восстановленную ссылку мы заплатим Вам.
    Подробнее тут -> ссылка
  • Перенесем твои заслуги с другого ресурса!
    Мы понимаем как сложно прокачивать аккаунты на форумах, вроде раскачал аккаунт, а тут появляется ресурс в 100 раз круче но тоже с системой прокачки и снова качать аккаунт...
    Предлагаем вам перенести Ваши заслуги на другом подобном ресурсе к нам.
    Подробности описаны тут -> ссылка
  • Вы можете получать по 2.5% с каждой покупки и продажи на маркете! Подробности в теме Партнёрская программа
Если Вы не хотите скачивать, Вы всегда можетепосмотретьонлайн, просто нажмите кнопку ниже :

Открыть плеер

Torrent_Bot

Торрент-Бот
Бот форума
4 Окт 2016
82
186
20
Год выпуска: 2007
Страна: Россия
Жанр: драма, комедия
Продолжительность: 01:36:10
Режиссер: Станислав Говорухин
Композитор: Евгений Дога
В ролях: Евгения Добровольская, Мария Аронова, Юрий Степанов, Дмитрий Певцов, Александр Абдулов, Михаил Ефремов, Фёдор Бондарчук, Евгений Косырев, Юлия Ауг, Дмитрий Мазуров, Ольга Стрелецкая, Юлия Галкина, Варвара Шулятьева, Марина Аксенова, Оксана Скоропад, Юрий Яфаев, Анжелика Волчкова, Ирина Скобцева, Кира Головко, Светлана Немоляева

Описание: Главная героиня Анечка (Евгения Добровольская) чем-то напоминает американскую комедийную героиню Бриджит Джонс - ей тоже немного за тридцать, она разведена, живет в крошечной комнатушке в общежитии. Актриса по призванию, она страдает от неудач, которые сыплются на нее градом. Аня мечтает получить роль королевы Гертруды в спектакле "Гамлет", но на эту роль активно претендует престарелая прима. В кино у нее тоже ничего не получается. Считая себя никудышной и дойдя до отчаяния, Аня уже готова на радикальные меры. К счастью, от этого ее спасает подруга Муся (Мария Аронова). Веселая и ироничная Муся поддерживает Аню и периодически сватает ее за кого-нибудь.



Кодек: х264
Качество: WEBRip-AVC
Видео: MPEG-4 AVC, 1080x648, 25 fps, 4607 Кбит/с
Звук: AC3, 6 ch, 448 Кбит/с, AC3, 2 ch, 192 Кбит/с

Скриншоты
Инфо файл

  • x264 [info]: frame I:793 Avg QP:17.49 size:133667
    x264 [info]: frame P:28929 Avg QP:18.89 size: 63468
    x264 [info]: frame B:114537 Avg QP:20.94 size: 12712
    x264 [info]: consecutive B-frames: 0.9% 1.0% 3.1% 20.1% 21.5% 52.5% 1.0% 0.1% 0.0% 0.0%
Общее
Уникальный идентификатор : 184077026916895054076740230883656390376 (0x8A7BF22158496A06A7F2E5243E8CD6E8)
Полное имя : D:Артистка_2007-WEBRip-AVC_KORSAR.mkv
Формат : Matroska
Версия формата : Version 2
Размер файла : 3,60 Гбайт
Продолжительность : 1 ч. 36 м.
Общий поток : 5353 Кбит/сек
Название фильма : Артистка_2007-WEBRip-AVC_KORSAR
Дата кодирования : UTC 2018-06-21 22:30:36
Программа кодирования : mkvmerge v5.8.0 ('No Sleep / Pillow') built on Sep 2 2012 15:37:04
Библиотека кодирования : libebml v1.2.3 + libmatroska v1.3.0

Видео
Идентификатор : 1
Формат : AVC
Формат/Информация : Advanced Video Codec
Профиль формата : [email protected]
Параметр CABAC формата : Да
Параметр RefFrames формата : 11 кадров
Идентификатор кодека : V_MPEG4/ISO/AVC
Продолжительность : 1 ч. 36 м.
Битрейт : 4607 Кбит/сек
Ширина : 1080 пикселей
Высота : 648 пикселей
Соотношение сторон : 5:3
Режим частоты кадров : Постоянный
Частота кадров : 25,000 кадров/сек
Цветовое пространство : YUV
Субдискретизация насыщенности : 4:2:0
Битовая глубина : 8 бит
Тип развёртки : Прогрессивная
Бит/(Пиксели*Кадры) : 0.263
Размер потока : 3,09 Гбайт (86%)
Библиотека кодирования : x264 core 152 r2851kMod ba24899
Настройки программы : cabac=1 / ref=11 / deblock=1:-2:-1 / analyse=0x3:0x113 / me=umh / subme=10 / psy=1 / fade_compensate=0.00 / psy_rd=1.05:0.10 / mixed_ref=1 / me_range=40 / chroma_me=1 / trellis=2 / 8x8dct=1 / cqm=0 / deadzone=21,11 / fast_pskip=1 / chroma_qp_offset=-3 / threads=12 / lookahead_threads=2 / sliced_threads=0 / nr=0 / decimate=1 / interlaced=0 / bluray_compat=0 / constrained_intra=0 / bframes=9 / b_pyramid=2 / b_adapt=2 / b_bias=0 / direct=1 / weightb=1 / open_gop=0 / weightp=2 / keyint=250 / keyint_min=25 / scenecut=40 / intra_refresh=0 / rc=crf / mbtree=0 / crf=17.6000 / qcomp=0.63 / qpmin=0 / qpmax=39 / qpstep=4 / ip_ratio=1.40 / pb_ratio=1.30 / aq=1:0.90
Язык : English
Default : Да
Forced : Нет
Цветовой диапазон : Limited
Основные цвета : BT.601 PAL
Характеристики трансфера : BT.470 System B, BT.470 System G
Коэффициенты матрицы : BT.601

Аудио #1
Идентификатор : 2
Формат : AC-3
Формат/Информация : Audio Coding 3
Параметр Endianness формата : Big
Идентификатор кодека : A_AC3
Продолжительность : 1 ч. 36 м.
Вид битрейта : Постоянный
Битрейт : 448 Кбит/сек
Каналы : 6 каналов
Расположение каналов : Front: L C R, Side: L R, LFE
Частота : 48,0 КГц
Частота кадров : 31,250 кадров/сек (1536 SPF)
Битовая глубина : 16 бит
Метод сжатия : С потерями
Размер потока : 308 Мбайт (8%)
Язык : Russian
Default : Да
Forced : Нет

Аудио #2
Идентификатор : 3
Формат : AC-3
Формат/Информация : Audio Coding 3
Параметр Endianness формата : Big
Идентификатор кодека : A_AC3
Продолжительность : 1 ч. 36 м.
Вид битрейта : Постоянный
Битрейт : 192 Кбит/сек
Каналы : 2 канала
Расположение каналов : Front: L R
Частота : 48,0 КГц
Частота кадров : 31,250 кадров/сек (1536 SPF)
Битовая глубина : 16 бит
Метод сжатия : С потерями
Размер потока : 132 Мбайт (4%)
Язык : Russian
Default : Нет
Forced : Нет

Текст
Идентификатор : 4
Формат : UTF-8
Идентификатор кодека : S_TEXT/UTF8
Идентификатор кодека/Информация : UTF-8 Plain Text
Язык : Russian
Default : Нет
Forced : Нет

Меню
00:00:00.000 : en:Chapter 1
00:08:15.760 : en:Chapter 2
00:16:35.680 : en:Chapter 3
00:24:51.280 : en:Chapter 4
00:30:26.560 : en:Chapter 5
00:45:40.000 : en:Chapter 6
00:52:52.120 : en:Chapter 7
01:01:28.240 : en:Chapter 8
01:09:45.640 : en:Chapter 9
01:18:15.280 : en:Chapter 10
01:26:55.360 : en:Chapter 11
01:34:43.360 : en:Chapter 12
01:36:09.280 : en:Chapter 13
01:36:09.760 : en:Chapter 14
 

Вложения

  • 18,9 KB Просмотры: 0
    Личеров 0
    Сидеров 0
    Файлов 1
    Объем 3,6 GB

Привет!

Мы группа людей которые решили помочь другим в решении их проблем, а так же пользователям с поиском самых свежих и качественных инфопродуктов. За 4 с небольшим месяца мы создали этот форум на который заходят ежедневно тысячи человек и посещаемость постоянно растёт. Мы создали панель лицензирования для защиты PHP скриптов от воровства и SEO панель для мониторинга наших сайтов и выбора верной стратегии их развития. Мы надеемся что то что мы создали пригодится Вам и возможно Вы поможете нам развиваться и совершенствоваться вместе с Вами.

Статистика форума

Темы
412.263
Сообщения
471.347
Пользователи
91.788
Новый пользователь
Хейндал

Приложения форума для iOS и Android


У ркн там нет власти ;)
Приватные разговоры
Помощь Пользователи
    Вы не присоединились ни к одной комнате.