За последнюю неделю опубликовано 72 новых материалов.
Инструкция новичку Путеводитель по форуму Прокси для Telegram Показать подсказки , это бомба!

Скачать Арифурэта: Сильнейший ремесленник в мире / Arifureta Shokugyou de Sekai Saikyou [S01] (2019) WEBRip 720p | AniLibria бесплатно через торрент

  • Поучаствуй (в качестве покупателя) в любых пяти совместных покупках (кроме завершённых и "Моментальных") и получи группу "Новичок" навсегда -> ссылка на раздел
  • Получай до 480 рублей за каждого приглашенного пользователя!
    представляем Вам очередное расширение партнерской программы, подробности описаны тут -> ссылка
  • 90% материалов доступно к скачиванию после простой регистрации!
    Если же ты хочешь скачивать материалы без требования оставлять отзывы то получи группу "Новичок", 10 способов повышения описаны тут -> ссылка
  • К сожалению количество битых ссылок растет и мы уже не можем их оперативно восстанавливать поэтому просим помощи у каждого нашего пользователя.
    С сегодняшнего дня, за каждую восстановленную ссылку мы заплатим Вам.
    Подробнее тут -> ссылка
  • Перенесем твои заслуги с другого ресурса!
    Мы понимаем как сложно прокачивать аккаунты на форумах, вроде раскачал аккаунт, а тут появляется ресурс в 100 раз круче но тоже с системой прокачки и снова качать аккаунт...
    Предлагаем вам перенести Ваши заслуги на другом подобном ресурсе к нам.
    Подробности описаны тут -> ссылка
  • Вы можете получать по 2.5% с каждой покупки и продажи на маркете! Подробности в теме Партнёрская программа

Torrent_Bot

Торрент-Бот
Бот форума
4 Окт 2016
102
157
20



Информация о фильме
Название: Арифурэта: Сильнейший ремесленник в мире
Оригинальное название: Arifureta Shokugyou de Sekai Saikyou
Год выхода: 2019
Жанр: приключения, гарем, фэнтези
Режиссер: Ёсимото Киндзи
Художник: Аояма Наоки, Танака Тосинари, Ояма Хироюки, Юри Сатоси, Мияо Ёсикадзу
В ролях: Фукамати Тосинари, Кувахара Юки, Такахаси Минами, Хикаса Ёко, Ониси Саори, Ханамори Юмири
О фильме:
Семнадцатилетний Хаджимэ Нагумо среднестатистический отаку. Внезапно, его обычная ночная жизнь в играх и сонная повседневность в школе обрываются, когда вместе с остальными учениками их переносят в мир фэнтези! К ним отнеслись, как к героям, и взложили задачу: «Спасти человечество от вымирания». Если подумать, чего ещё желать отаку? Но все мечты Хаджимэ обрываются, когда в сравнении с остальными, получившими способности, не уступающие божественным, ему досталась лишь одна абилка трансмутации — «Синергист». Терпящий издевательства от одноклассников, вскоре он впадает в отчаяние. Сможет ли Хаджимэ выжить и обрести славу в этом опасном мире монстров и демонов с уровнем силы простого ремесленника? (c) Keitaro


World Art | MAL

Страна: Япония
Студия: White Fox & asread
Продолжительность: 00:23:40
Язык: Русский, Японский
Перевод: Любительский (многоголосый, закадровый)

Файл
Качество: WEBRip
Формат: MKV
Кодек: H.264
Аудио кодек: AAC
Видео: 1280x720, 23.976 fps, 3200 kbps
Аудио RUS: 48.0 kHz, AAC, 2 ch, 192 kbps - AniLibria
Аудио JAP: 48.0 kHz, AAC, 2 ch, 192 kbps
Субтитры: русские (встроенные надписи, ASS)
Субтитры: русские (встроенные полный перевод, ASS) - YakuSub Studio
Субтитры: русские (встроенные полный перевод, ASS) - SovetRomantica

Озвучка
Релиз от:
Озвучивание: Amikiri, Itashi, Arato, Anzen
Перевод: Keitaro
Тайминг и работа со звуком: Sekai, ZencorZ
Скриншоты
Список серий
01. Монстр Бездны.
02. Ящик Пандоры.
03. Принцесса Золотых Вампиров.
04. Защитник Глубин.
05. Логово Мятежника.
06. Никчёмный Кролик.
07. Великий Лабиринт Рейзена.
08. Воссоединение с Прошлым.
09. Драконоборец.
10. Меч Богини.
11. Выходной у Монстров.
12. Надвигающаяся Тень.
13. Лучший в Своей Беспомощности.
MediaInfo
General
Format : Matroska
Format version : Version 4
File size : 622 MiB
Duration : 23 min 44 s
Overall bit rate : 3 662 kb/s
Encoded date : UTC 2019-10-21 16:20:11
Writing application : mkvmerge v8.3.0 ('Over the Horizon') 32bit
Writing library : libebml v1.3.1 + libmatroska v1.4.2

Video
ID : 1
Format : AVC
Format/Info : Advanced Video Codec
Format profile : Main@L3.1
Format settings : CABAC / 4 Ref Frames
Format settings, CABAC : Yes
Format settings, Reference : 4 frames
Codec ID : V_MPEG4/ISO/AVC
Duration : 23 min 42 s
Bit rate : 3 278 kb/s
Nominal bit rate : 3 500 kb/s
Width : 1 280 pixels
Height : 720 pixels
Display aspect ratio : 16:9
Frame rate mode : Constant
Frame rate : 23.976 (24000/1001) FPS
Color space : YUV
Chroma subsampling : 4:2:0
Bit depth : 8 bits
Scan type : Progressive
Bits/(Pixel*Frame) : 0.148
Stream size : 556 MiB (89%)
Writing library : x264 core 157 r2948 dada181
Encoding settings : cabac=1 / ref=1 / deblock=1:0:0 / analyse=0x1:0x111 / me=hex / subme=7 / psy=1 / psy_rd=1.00:0.00 / mixed_ref=0 / me_range=16 / chroma_me=1 / trellis=1 / 8x8dct=0 / cqm=0 / deadzone=21,11 / fast_pskip=1 / chroma_qp_offset=-2 / threads=22 / lookahead_threads=3 / sliced_threads=0 / nr=0 / decimate=1 / interlaced=0 / bluray_compat=0 / constrained_intra=0 / bframes=2 / b_pyramid=2 / b_adapt=1 / b_bias=0 / direct=1 / weightb=1 / open_gop=0 / weightp=2 / keyint=48 / keyint_min=4 / scenecut=40 / intra_refresh=0 / rc_lookahead=40 / rc=cbr / mbtree=1 / bitrate=3500 / ratetol=1.0 / qcomp=0.60 / qpmin=0 / qpmax=69 / qpstep=4 / vbv_maxrate=3500 / vbv_bufsize=10500 / nal_hrd=none / filler=0 / ip_ratio=1.40 / aq=1:1.00
Default : No
Forced : No

Audio #1
ID : 2
Format : AAC LC
Format/Info : Advanced Audio Codec Low Complexity
Codec ID : A_AAC-2
Duration : 23 min 42 s
Bit rate : 192 kb/s
Channel(s) : 2 channels
Channel layout : L R
Sampling rate : 48.0 kHz
Frame rate : 46.875 FPS (1024 SPF)
Compression mode : Lossy
Stream size : 32.1 MiB (5%)
Title : AniLibria
Language : Russian
Default : Yes
Forced : No

Audio #2
ID : 3
Format : AAC LC
Format/Info : Advanced Audio Codec Low Complexity
Codec ID : A_AAC-2
Duration : 23 min 42 s
Bit rate : 192 kb/s
Channel(s) : 2 channels
Channel layout : L R
Sampling rate : 48.0 kHz
Frame rate : 46.875 FPS (1024 SPF)
Compression mode : Lossy
Stream size : 33.2 MiB (5%)
Title : Original
Language : Japanese
Default : No
Forced : No

Text #1
ID : 4
Format : ASS
Codec ID : S_TEXT/ASS
Codec ID/Info : Advanced Sub Station Alpha
Duration : 23 min 3 s
Bit rate : 56 b/s
Count of elements : 96
Compression mode : Lossless
Stream size : 9.46 KiB (0%)
Title : Надписи
Language : Russian
Default : Yes
Forced : No

Text #2
ID : 5
Format : ASS
Codec ID : S_TEXT/ASS
Codec ID/Info : Advanced Sub Station Alpha
Duration : 23 min 3 s
Bit rate : 147 b/s
Count of elements : 319
Compression mode : Lossless
Stream size : 24.9 KiB (0%)
Title : Полные субтитры - YakuSub Studio
Language : Russian
Default : No
Forced : No

Text #3
ID : 6
Format : ASS
Codec ID : S_TEXT/ASS
Codec ID/Info : Advanced Sub Station Alpha
Duration : 21 min 41 s
Bit rate : 114 b/s
Count of elements : 227
Compression mode : Lossless
Stream size : 18.2 KiB (0%)
Title : Полные субтитры - SovetRomantica
Language : Russian
Default : No
Forced : No
 

Вложения

  • 41,5 KB Просмотры: 1
    Личеров 0
    Сидеров 0
    Файлов 13
    Объем 7,9 GB

Привет!

Мы группа людей которые решили помочь другим в решении их проблем, а так же пользователям с поиском самых свежих и качественных инфопродуктов. За 4 с небольшим месяца мы создали этот форум на который заходят ежедневно тысячи человек и посещаемость постоянно растёт. Мы создали панель лицензирования для защиты PHP скриптов от воровства и SEO панель для мониторинга наших сайтов и выбора верной стратегии их развития. Мы надеемся что то что мы создали пригодится Вам и возможно Вы поможете нам развиваться и совершенствоваться вместе с Вами.

Статистика форума

Темы
405.450
Сообщения
462.438
Пользователи
80.495
Новый пользователь
РУС111273

Приложения форума для iOS и Android


У ркн там нет власти ;)
Приватные разговоры
Помощь Пользователи
    Вы не присоединились ни к одной комнате.