За последнюю неделю опубликовано 81 новых материалов.
Инструкция новичку Путеводитель по форуму Прокси для Telegram Показать подсказки , это бомба!

Скачать Арифурэта: Сильнейший ремесленник в мире / Arifureta Shokugyou de Sekai Saikyou [01-06 из 13] (2019) HDTVRip 720p | StudioBand бесплатно через торрент

  • Поучаствуй (в качестве покупателя) в любых пяти совместных покупках (кроме завершённых и "Моментальных") и получи группу "Новичок" навсегда -> ссылка на раздел
  • Получай до 480 рублей за каждого приглашенного пользователя!
    представляем Вам очередное расширение партнерской программы, подробности описаны тут -> ссылка
  • 90% материалов доступно к скачиванию после простой регистрации!
    Если же ты хочешь скачивать материалы без требования оставлять отзывы то получи группу "Новичок", 10 способов повышения описаны тут -> ссылка
  • К сожалению количество битых ссылок растет и мы уже не можем их оперативно восстанавливать поэтому просим помощи у каждого нашего пользователя.
    С сегодняшнего дня, за каждую восстановленную ссылку мы заплатим Вам.
    Подробнее тут -> ссылка
  • Перенесем твои заслуги с другого ресурса!
    Мы понимаем как сложно прокачивать аккаунты на форумах, вроде раскачал аккаунт, а тут появляется ресурс в 100 раз круче но тоже с системой прокачки и снова качать аккаунт...
    Предлагаем вам перенести Ваши заслуги на другом подобном ресурсе к нам.
    Подробности описаны тут -> ссылка
  • Вы можете получать по 2.5% с каждой покупки и продажи на маркете! Подробности в теме Партнёрская программа

Torrent_Bot

Торрент-Бот
Бот форума
4 Окт 2016
102
153
20



Информация о фильме

Название : Арифурэта: Сильнейший ремесленник в мире
Оригинальное название : Arifureta Shokugyou de Sekai Saikyou / Arifureta: From Commonplace to World's Strongest / ありふれた職業で世界最強
Год выхода : 2019
Тип: TV
Жанр :Фэнтези, приключения
Режиссер : Ёсимото Киндзи


Описание : Жизнь семнадцатилетнего Хаджимэ переворачивается с ног на голову в тот самый момент, когда он со своими одноклассниками попадает в иной мир.
Однако до боли знакомый любому отаку сюжет, где героя наделяют непревзойдёнными способностями, зачастую попирающими все мыслимые и немыслимые законы мироздания, даёт трещину ровно в тот момент, когда всех призванных юношей и девушек наделяют божественными дарами и классами.
Впрочем, ничем не выделяющемуся школьнику, который до недавних пор прослыл изгоем среди своих сверстников, и в этот раз не светит билет в счастливое будущее, так как ему достались самые невзрачные и в плане наращивания боевого потенциала довольно посредственные силы. Сможет ли теперь он пережить все уготованные ему невзгоды и обрести славу великого героя?


world-art | MyAnimeList | Офиц. Сайт


Страна : Япония
Производство : White Fox, asread
Продолжительность : 13 эпизодов по ~00:24:00
Перевод: Профессиональный (полное дублирование)

Перевод:

Русские субтитры:SovetRomantica (Надписи (01-04)+Полные)
Перевод: WolteR, RoS

Русские субтитры:YakuSub Studio (Надписи+Полные)
Перевод: Aero

Озвучка:ТО Студийная БандаWAKANIM
- многоголосая полное дублирование: Александр Русаков, Владислав Токарев, Татьяна Борзова, Анна Мосолова, Сергей Кубасян, Егор Васильев
По переводу: Ксения Чернышкова[Истари Комикс], по заказу WAKANIM

За озвучку спасибо moscowgolem


Автор рипа: Leopard-Raws


Файл
Качество : HDTVRip
Тип релиза: Без хардсаба
Формат видео: mp4
Наличие линковки: Нет

Видео: AVC, 1280x720 (16:9), 2170 kbps, 23.976 fps, 8bit
Аудио : Японский, AAC, 192 Кбит/с, 48.0 kHz, 2 ch (в составе контейнера)

Аудио: Русский, AAC, 192 Кбит/с, 48.0 kHz, 2 ch (внешним файлам)
Субтитры (ASS): Русские (внешними файлами)

Список эпизодов
01. Монстр из Бездны / The Monster of the Abyss
02. Ящик Пандоры / Pandora`s Box
03. Золотая принцесса вампиров / The Golden Vampire Princess
04. Страж глубин / Guardian of the Depths
05. Убежище Восставшего / The Maverick`s Lair
06. Бестолковая зайчиха / Worthless Rabbit
Скриншоты




MediaInfo
General
Complete name : E:/Torrent_2/Arifureta Shokugyou de Sekai Saikyou (2019, AVC HDTVRip-720p, RUS JAP+SUB)/[Leopard-Raws] Arifureta Shokugyou de Sekai Saikyou - 01 RAW (BS11 1280x720 x264 AAC).mp4
Format : MPEG-4
Format profile : Base Media
Codec ID : isom
File size : 406 MiB
Duration : 23mn 59s
Overall bit rate mode : Variable
Overall bit rate : 2 364 Kbps
Encoded date : UTC 2019-07-09 10:54:42
Tagged date : UTC 2019-07-09 10:54:42

Video #1
ID : 1
Format : AVC
Format/Info : Advanced Video Codec
Format profile : High@L4.1
Format settings, CABAC : Yes
Format settings, ReFrames : 4 frames
Codec ID : avc1
Codec ID/Info : Advanced Video Coding
Duration : 23mn 59s
Bit rate : 2 170 Kbps
Maximum bit rate : 12.4 Mbps
Width : 1 280 pixels
Height : 720 pixels
Display aspect ratio : 16:9
Frame rate mode : Constant
Frame rate : 23.976 fps
Color space : YUV
Chroma subsampling : 4:2:0
Bit depth : 8 bits
Scan type : Progressive
Bits/(Pixel*Frame) : 0.098
Stream size : 372 MiB (92%)
Title : 264:fps=23.976@GPAC0.5.2-DEV-rev376-g5eeb74d-master
Writing library : x264 core 129 r2245+729M 1a52e03
Encoding settings : cabac=1 / ref=4 / deblock=1:1:-1 / analyse=0x3:0x113 / me=umh / subme=9 / psy=1 / fade_compensate=0.00 / psy_rd=1.00:0.00 / mixed_ref=1 / me_range=24 / chroma_me=1 / trellis=2 / 8x8dct=1 / cqm=0 / deadzone=21,11 / fast_pskip=1 / chroma_qp_offset=-2 / threads=8 / lookahead_threads=1 / sliced_threads=0 / nr=0 / decimate=1 / interlaced=0 / bluray_compat=0 / constrained_intra=0 / fgo=0 / bframes=9 / b_pyramid=2 / b_adapt=2 / b_bias=0 / direct=1 / weightb=1 / open_gop=0 / weightp=2 / keyint=240 / keyint_min=24 / scenecut=40 / intra_refresh=0 / rc=crf / mbtree=0 / crf=18.0 / qcomp=0.72 / qpmin=0 / qpmax=69 / qpstep=4 / ip_ratio=1.40 / pb_ratio=1.30 / aq=1:0.85
Encoded date : UTC 2019-07-09 10:54:42
Tagged date : UTC 2019-07-09 10:54:57
Color primaries : BT.709
Transfer characteristics : BT.709
Matrix coefficients : BT.709

Audio #2
ID : 2
Format : AAC
Format/Info : Advanced Audio Codec
Format profile : LC
Codec ID : 40
Duration : 23mn 59s
Bit rate mode : Variable
Bit rate : 192 Kbps
Maximum bit rate : 248 Kbps
Channel(s) : 2 channels
Channel positions : Front: L R
Sampling rate : 48.0 KHz
Compression mode : Lossy
Stream size : 32.7 MiB (8%)
Language : Japanese
Encoded date : UTC 2019-07-08 20:09:04
Tagged date : UTC 2019-07-09 10:54:57




 

Вложения

  • 19,4 KB Просмотры: 0
    Личеров 0
    Сидеров 0
    Файлов 41
    Объем 2,6 GB

Привет!

Мы группа людей которые решили помочь другим в решении их проблем, а так же пользователям с поиском самых свежих и качественных инфопродуктов. За 4 с небольшим месяца мы создали этот форум на который заходят ежедневно тысячи человек и посещаемость постоянно растёт. Мы создали панель лицензирования для защиты PHP скриптов от воровства и SEO панель для мониторинга наших сайтов и выбора верной стратегии их развития. Мы надеемся что то что мы создали пригодится Вам и возможно Вы поможете нам развиваться и совершенствоваться вместе с Вами.

Статистика форума

Темы
405.441
Сообщения
462.402
Пользователи
80.449
Новый пользователь
okop

Приложения форума для iOS и Android


У ркн там нет власти ;)
Приватные разговоры
Помощь Пользователи
    Вы не присоединились ни к одной комнате.