За последнюю неделю опубликовано 101 новых материалов.
Инструкция новичку Путеводитель по форуму Прокси для Telegram Показать подсказки , это бомба!

Скачать Ариэтти из страны лилипутов / Добывайка Арриетти / The Borrower Arrietty / Kari-gurashi no Arietti (2010) BDRip 720p от NoLimits-Team бесплатно через торрент

  • Поучаствуй (в качестве покупателя) в любых пяти совместных покупках (кроме завершённых и "Моментальных") и получи группу "Новичок" навсегда -> ссылка на раздел
  • Получай до 480 рублей за каждого приглашенного пользователя!
    представляем Вам очередное расширение партнерской программы, подробности описаны тут -> ссылка
  • 90% материалов доступно к скачиванию после простой регистрации!
    Если же ты хочешь скачивать материалы без требования оставлять отзывы то получи группу "Новичок", 10 способов повышения описаны тут -> ссылка
  • К сожалению количество битых ссылок растет и мы уже не можем их оперативно восстанавливать поэтому просим помощи у каждого нашего пользователя.
    С сегодняшнего дня, за каждую восстановленную ссылку мы заплатим Вам.
    Подробнее тут -> ссылка
  • Перенесем твои заслуги с другого ресурса!
    Мы понимаем как сложно прокачивать аккаунты на форумах, вроде раскачал аккаунт, а тут появляется ресурс в 100 раз круче но тоже с системой прокачки и снова качать аккаунт...
    Предлагаем вам перенести Ваши заслуги на другом подобном ресурсе к нам.
    Подробности описаны тут -> ссылка
  • Вы можете получать по 2.5% с каждой покупки и продажи на маркете! Подробности в теме Партнёрская программа

Torrent_Bot

Торрент-Бот
Бот форума
4 Окт 2016
118
147
20
Информацияофильме
Русское название: Ариэтти из страны лилипутов
Оригинальное название: Karigurashi no Arrietty / The Borrower Arrietty
Год выхода: 2010
Жанр: Приключения, сказка
Режиссер: Хиромасе Йонебаяши
Выпущено: Япония
Продолжительность: 01:34:15
Перевод: Дублированый
В ролях: Мираи Шида, Рюноскэ Камики, Синобу Отакэ, Кейко Такешита, Татсуя Фудживара, Томокадзу Миура, Кирин Кики, Уилл Арнетт, Кэрол Бёрнетт, Шиничи Хатори

Сюжетфильма
Их не видно невооруженным глазом. Но они - наши соседи! Маленькие, чуть больше пальца человечки, которые живут с нами под одной крышей. Лилипутики обустраивают "свои" домики, одалживая у людей вещи, пропажа которых будет незаметна. Ведь им нужно так мало! Существование мини-человечков - большой секрет! Но однажды юная малышка Ариэтти знакомится с мальчиком по имени Шо и приоткрывает завесу тайны! Их встреча станет началом большой дружбы...


Файл
Качество: BDRip 720p (DVD5) (исходник Blu-ray disc)
Видео: 1280x694, 5353 Кбит/сек, 23,976 кадр/сек, AVC, x264, High@L4.1, 1.85:1, 0.251 Бит/[Пиксели*Кадры], 2pass
Аудио 1: AC-3, 640 Кбит/сек, 6 канала(ов), 48,0 КГц - Дублированный / Русский
Аудио 2: AC-3, 640 Кбит/сек, 6 канала(ов), 48,0 КГц - Оригинал / Японский
Субтитры: Русские | Полные
Чаптеры: Есть

1d85c513123d074f6b6afc79188fd5e8.gif
Релиз Группа | Автор Рипа:


Скриншоты
MediaInfo
Format : Matroska
Format version : Version 4 / Version 2
File size : 4.37 GiB
Duration : 1h 34mn
Overall bit rate : 6 636 Kbps
Movie name : Ариэтти из страны лилипутов.(2010).BDRip.720p.(DVD5).[NoLimits-Team]
Encoded date : UTC 2013-06-03 11:30:02
Writing application : mkvmerge v6.0.0 ('Coming Up For Air') built on Jan 20 2013 09:52:00
Writing library : libebml v1.3.0 + libmatroska v1.4.0

Video
ID : 1
Format : AVC
Format/Info : Advanced Video Codec
Format profile : High@L4.1
Format settings, CABAC : Yes
Format settings, ReFrames : 9 frames
Codec ID : V_MPEG4/ISO/AVC
Duration : 1h 34mn
Bit rate : 5 353 Kbps
Width : 1 280 pixels
Height : 694 pixels
Display aspect ratio : 1.85:1
Frame rate mode : Constant
Frame rate : 23.976 fps
Color space : YUV
Chroma subsampling : 4:2:0
Bit depth : 8 bits
Scan type : Progressive
Bits/(Pixel*Frame) : 0.251
Stream size : 3.44 GiB (79%)
Title : Ариэтти из страны лилипутов.(2010).BDRip.720p.(DVD5).[NoLimits-Team]
Writing library : x264 core 133 r2334 a3ac64b
Encoding settings : cabac=1 / ref=9 / deblock=1:0:0 / analyse=0x3:0x133 / me=umh / subme=11 / psy=1 / psy_rd=1.00:0.00 / mixed_ref=1 / me_range=64 / chroma_me=1 / trellis=2 / 8x8dct=1 / cqm=0 / deadzone=21,11 / fast_pskip=0 / chroma_qp_offset=-2 / threads=9 / lookahead_threads=2 / sliced_threads=0 / nr=0 / decimate=1 / interlaced=0 / bluray_compat=0 / constrained_intra=0 / bframes=14 / b_pyramid=2 / b_adapt=2 / b_bias=0 / direct=3 / weightb=1 / open_gop=0 / weightp=2 / keyint=240 / keyint_min=23 / scenecut=40 / intra_refresh=0 / rc_lookahead=60 / rc=2pass / mbtree=1 / bitrate=5353 / ratetol=1.0 / qcomp=0.60 / qpmin=0 / qpmax=69 / qpstep=4 / cplxblur=20.0 / qblur=0.5 / ip_ratio=1.40 / aq=1:1.00
Language : Japanese
Default : Yes
Forced : No

Audio #1
ID : 2
Format : AC-3
Format/Info : Audio Coding 3
Mode extension : CM (complete main)
Format settings, Endianness : Big
Codec ID : A_AC3
Duration : 1h 34mn
Bit rate mode : Constant
Bit rate : 640 Kbps
Channel(s) : 6 channels
Channel positions : Front: L C R, Side: L R, LFE
Sampling rate : 48.0 KHz
Bit depth : 16 bits
Compression mode : Lossy
Stream size : 431 MiB (10%)
Title : Дублированый
Language : Russian
Default : Yes
Forced : No

Audio #2
ID : 3
Format : AC-3
Format/Info : Audio Coding 3
Mode extension : CM (complete main)
Format settings, Endianness : Big
Codec ID : A_AC3
Duration : 1h 34mn
Bit rate mode : Constant
Bit rate : 640 Kbps
Channel(s) : 6 channels
Channel positions : Front: L C R, Side: L R, LFE
Sampling rate : 48.0 KHz
Bit depth : 16 bits
Compression mode : Lossy
Stream size : 431 MiB (10%)
Title : Японский / Оригинальный
Language : Japanese
Default : No
Forced : No

Text
ID : 4
Format : UTF-8
Codec ID : S_TEXT/UTF8
Codec ID/Info : UTF-8 Plain Text
Title : Русские (полные)
Language : Russian
Default : No
Forced : No

Menu
00:00:00.000 : :Chapter 01
00:08:16.662 : :Chapter 02
00:12:35.671 : :Chapter 03
00:23:24.236 : :Chapter 04
00:29:18.506 : :Chapter 05
00:39:05.885 : :Chapter 06
00:46:36.168 : :Chapter 07
00:52:08.750 : :Chapter 08
00:57:56.764 : :Chapter 09
01:05:24.837 : :Chapter 10
01:13:19.895 : :Chapter 11
01:22:19.309 : :Chapter 12

 

Вложения

Привет!

Мы группа людей которые решили помочь другим в решении их проблем, а так же пользователям с поиском самых свежих и качественных инфопродуктов. За 4 с небольшим месяца мы создали этот форум на который заходят ежедневно тысячи человек и посещаемость постоянно растёт. Мы создали панель лицензирования для защиты PHP скриптов от воровства и SEO панель для мониторинга наших сайтов и выбора верной стратегии их развития. Мы надеемся что то что мы создали пригодится Вам и возможно Вы поможете нам развиваться и совершенствоваться вместе с Вами.

Статистика форума

Темы
394.334
Сообщения
446.472
Пользователи
75.177
Новый пользователь
newtopblog

Приложения форума для iOS и Android


У ркн там нет власти ;)
Приватные разговоры
Помощь Пользователи
    Вы не присоединились ни к одной комнате.