За последнюю неделю опубликовано 35 новых материалов.
Инструкция новичку Путеводитель по форуму Прокси для Telegram Показать подсказки , это бомба!

Скачать Architects - For Those That Wish To Exist [24bit Hi-Res] (2021) FLAC бесплатно через торрент

  • Поучаствуй (в качестве покупателя) в любых пяти совместных покупках (кроме завершённых и "Моментальных") и получи группу "Новичок" навсегда -> ссылка на раздел
  • Получай до 480 рублей за каждого приглашенного пользователя!
    представляем Вам очередное расширение партнерской программы, подробности описаны тут -> ссылка
  • 90% материалов доступно к скачиванию после простой регистрации!
    Если же ты хочешь скачивать материалы без требования оставлять отзывы то получи группу "Новичок", 10 способов повышения описаны тут -> ссылка
  • К сожалению количество битых ссылок растет и мы уже не можем их оперативно восстанавливать поэтому просим помощи у каждого нашего пользователя.
    С сегодняшнего дня, за каждую восстановленную ссылку мы заплатим Вам.
    Подробнее тут -> ссылка
  • Перенесем твои заслуги с другого ресурса!
    Мы понимаем как сложно прокачивать аккаунты на форумах, вроде раскачал аккаунт, а тут появляется ресурс в 100 раз круче но тоже с системой прокачки и снова качать аккаунт...
    Предлагаем вам перенести Ваши заслуги на другом подобном ресурсе к нам.
    Подробности описаны тут -> ссылка
  • Вы можете получать по 2.5% с каждой покупки и продажи на маркете! Подробности в теме Партнёрская программа

Torrent_Bot

Торрент-Бот
Бот форума
4 Окт 2016
94
155
20



Название: For Those That Wish To Exist [24bit Hi-Res]
Исполнитель: Architects
Год: 2021
Жанр: Metalcore, Post-Hardcore, Nu-Metal
Страна: Англия/England

Продолжительность: 00:58:28
Формат/Кодек: FLAC
Битрейт аудио: 24/48


Трек-лист
01. Do You Dream Of Armageddon?
02. Black Lungs
03. Giving Blood
04. Discourse Is Dead
05. Dead Butterflies
06. An Ordinary Extinction
07. Impermanence ft. Winston McCall
08. Flight Without Feathers
09. Little Wonder ft. Mike Kerr
10. Animals
11. Libertine
12. Goliath ft. Simon Neil
13. Demi God
14. Meteor
15. Dying Is Absolutely Safe

Дополнительная информация: Лог проверки качества (DR)
foobar2000 1.5.4 / Dynamic Range Meter 1.1.1
log date: 2021-03-02 15:07:04

--------------------------------------------------------------------------------
Analyzed: Architects / For Those That Wish To Exist
--------------------------------------------------------------------------------

DR Peak RMS Duration Track
--------------------------------------------------------------------------------
DR5 -0.17 dB -8.67 dB 1:39 01-Do You Dream Of Armageddon?
DR4 -0.17 dB -5.97 dB 3:51 02-Black Lungs
DR4 -0.17 dB -6.22 dB 3:32 03-Giving Blood
DR4 -0.17 dB -5.65 dB 3:47 04-Discourse Is Dead
DR4 -0.17 dB -5.95 dB 4:02 05-Dead Butterflies
DR4 -0.17 dB -6.10 dB 4:08 06-An Ordinary Extinction
DR4 -0.17 dB -5.94 dB 4:02 07-Impermanence ft. Winston McCall
DR4 -0.17 dB -7.47 dB 3:49 08-Flight Without Feathers
DR4 -0.17 dB -5.98 dB 3:48 09-Little Wonder ft. Mike Kerr
DR4 -0.17 dB -5.87 dB 4:04 10-Animals
DR4 -0.17 dB -5.81 dB 4:02 11-Libertine
DR4 -0.17 dB -5.51 dB 4:18 12-Goliath ft. Simon Neil
DR4 -0.17 dB -6.46 dB 4:27 13-Demi God
DR4 -0.17 dB -5.32 dB 4:01 14-Meteor
DR7 -0.17 dB -11.03 dB 4:59 15-Dying Is Absolutely Safe
--------------------------------------------------------------------------------

Number of tracks: 15
Official DR value: DR4

Samplerate: 48000 Hz
Channels: 2
Bits per sample: 24
Bitrate: 1716 kbps
Codec: FLAC
================================================================================
Присоединяйся к/Join the:
 

Вложения

  • 17,5 KB Просмотры: 0
    Личеров 0
    Сидеров 0
    Файлов 17
    Объем 806,9 MB

Привет!

Мы группа людей которые решили помочь другим в решении их проблем, а так же пользователям с поиском самых свежих и качественных инфопродуктов. За 4 с небольшим месяца мы создали этот форум на который заходят ежедневно тысячи человек и посещаемость постоянно растёт. Мы создали панель лицензирования для защиты PHP скриптов от воровства и SEO панель для мониторинга наших сайтов и выбора верной стратегии их развития. Мы надеемся что то что мы создали пригодится Вам и возможно Вы поможете нам развиваться и совершенствоваться вместе с Вами.

Статистика форума

Темы
406.525
Сообщения
464.587
Пользователи
82.983
Новый пользователь
ancolly

Приложения форума для iOS и Android


У ркн там нет власти ;)
Приватные разговоры
Помощь Пользователи
    Вы не присоединились ни к одной комнате.