За последнюю неделю опубликовано 48 новых материалов.
Инструкция новичку Путеводитель по форуму Прокси для Telegram Показать подсказки , это бомба!

Скачать Анна Каренина. История Вронского (2017) WEB-DL 1080p | iTunes бесплатно через торрент

  • Поучаствуй (в качестве покупателя) в любых пяти совместных покупках (кроме завершённых и "Моментальных") и получи группу "Новичок" навсегда -> ссылка на раздел
  • Получай до 480 рублей за каждого приглашенного пользователя!
    представляем Вам очередное расширение партнерской программы, подробности описаны тут -> ссылка
  • 90% материалов доступно к скачиванию после простой регистрации!
    Если же ты хочешь скачивать материалы без требования оставлять отзывы то получи группу "Новичок", 10 способов повышения описаны тут -> ссылка
  • К сожалению количество битых ссылок растет и мы уже не можем их оперативно восстанавливать поэтому просим помощи у каждого нашего пользователя.
    С сегодняшнего дня, за каждую восстановленную ссылку мы заплатим Вам.
    Подробнее тут -> ссылка
  • Перенесем твои заслуги с другого ресурса!
    Мы понимаем как сложно прокачивать аккаунты на форумах, вроде раскачал аккаунт, а тут появляется ресурс в 100 раз круче но тоже с системой прокачки и снова качать аккаунт...
    Предлагаем вам перенести Ваши заслуги на другом подобном ресурсе к нам.
    Подробности описаны тут -> ссылка
  • Вы можете получать по 2.5% с каждой покупки и продажи на маркете! Подробности в теме Партнёрская программа
Если Вы не хотите скачивать, Вы всегда можетепосмотретьонлайн, просто нажмите кнопку ниже :

Открыть плеер

Torrent_Bot

Торрент-Бот
Бот форума
4 Окт 2016
93
160
20
Информация о фильме
Название: Анна Каренина. История Вронского
Год выхода: 2017
Жанр:Драма
Режиссер: Карен Шахназаров
В ролях: Елизавета Боярская, Максим Матвеев, Виталий Кищенко, Кирилл Гребенщиков, Макар Михалкин, Татьяна Лютаева, Иван Колесников, Анастасия Макеева, София Сун, Дмитрий Гусев

О фильме:
1904 год. Русско-японская война. Маньчжурия. Российский военный госпиталь, отступая, занимает полузаброшенную китайскую деревню. Начальник госпиталя, Сергей Каренин, узнаёт, что раненый офицер, которого он оперирует, — граф Вронский, — тот, кто погубил его мать, Анну Каренину, и послужил косвенной причиной смерти отца. Не питая иллюзий и не ожидая ответа, Каренин всё же идёт к Вронскому и задаёт вопрос, который мучил его всю жизнь: что заставило его мать переступить черту? Граф Вронский, в свою очередь, узнаёт, что врач — тот самый Сережа Каренин. После некоторых сомнений граф соглашается поведать историю своей трагической любви к Анне Карениной, заметив, что люди помнят лишь то, что им удобно помнить.



Страна: Россия
Студия: Мосфильм
Продолжительность: 02:12:14
Перевод: Не требуется | iTunes

Файл
Качество: WEB-DL 1080р
Кодек: MPEG-4 AVC
Видео: 1920x1038 (1,85:1), 25 fps, MPEG-4 AVC ~ 5059 kbps avg, 0.102 bit/pixel
Аудио: AC3, 48 kHz, 6 ch, ~384.00 kbps avg | русский |
Субтитры: Отсутствуют

Инфо-файл
Общее
Уникальный идентификатор : 187675438331226989322776237827650768058 (0x8D30F982B72E4F9FA4D5E6F640404CBA)
Полное имя : Anna.Karenina.Istoriya.Vronskogo.2017.1080p.WEB-DL.Rus.HDCLUB.mkv
Формат : Matroska
Версия формата : Version 2
Размер файла : 5,13 Гбайт
Продолжительность : 2 ч. 12 м.
Общий поток : 5554 Кбит/сек
Название фильма : Anna Karenina. Istoriya Vronskogo (2017) - Release for HDCLUB
Дата кодирования : UTC 2017-08-18 15:06:35
Программа кодирования : mkvmerge v3.4.0 ('Rapunzel') built on May 15 2010 09:38:20
Библиотека кодирования : libebml v0.8.0 + libmatroska v0.9.0

Видео
Идентификатор : 1
Формат : AVC
Формат/Информация : Advanced Video Codec
Профиль формата : [email protected]
Параметр CABAC формата : Да
Параметр ReFrames формата : 4 кадра
Идентификатор кодека : V_MPEG4/ISO/AVC
Продолжительность : 2 ч. 12 м.
Битрейт : 5059 Кбит/сек
Ширина : 1920 пикселей
Высота : 1038 пикселей
Соотношение сторон : 1,85:1
Режим частоты кадров : Постоянный
Частота кадров : 25,000 кадров/сек
Цветовое пространство : YUV
Субдискретизация насыщенности : 4:2:0
Битовая глубина : 8 бит
Тип развёртки : Прогрессивная
Бит/(Пиксели*Кадры) : 0.102
Размер потока : 4,67 Гбайт (91%)
Заголовок : Anna Karenina. Istoriya Vronskogo (2017) - Release for HDCLUB
Язык : Russian
Default : Да
Forced : Нет
Цветовой диапазон : Limited
Основные цвета : BT.709
Характеристики трансфера : BT.709
Коэффициенты матрицы : BT.709

Аудио
Идентификатор : 2
Формат : AC-3
Формат/Информация : Audio Coding 3
Параметр Endianness формата : Big
Идентификатор кодека : A_AC3
Продолжительность : 2 ч. 12 м.
Вид битрейта : Постоянный
Битрейт : 384 Кбит/сек
Каналы : 6 каналов
Расположение каналов : Front: L C R, Side: L R, LFE
Частота : 48,0 КГц
Частота кадров : 31,250 кадров/сек (1536 spf)
Битовая глубина : 16 бит
Метод сжатия : С потерями
Размер потока : 363 Мбайт (7%)
Заголовок : AC3 5.1 @ 384 kbps
Язык : Russian
Default : Да
Forced : Нет

Меню
00:00:00.000 : en:1
00:07:03.640 : en:2
00:15:05.680 : en:3
00:19:29.920 : en:4
00:27:05.640 : en:5
00:34:18.120 : en:6
00:38:05.400 : en:7
00:45:10.680 : en:8
00:51:34.000 : en:9
00:57:14.680 : en:10
01:02:48.800 : en:11
01:08:07.560 : en:12
01:12:42.400 : en:13
01:18:46.640 : en:14
01:24:15.920 : en:15
01:29:57.520 : en:16
01:36:48.320 : en:17
01:44:09.760 : en:18
01:49:36.840 : en:19
01:57:45.640 : en:20
02:03:38.960 : en:21
Скриншоты


 

Вложения

  • 14 KB Просмотры: 1
    Личеров 0
    Сидеров 0
    Файлов 1
    Объем 5,1 GB

Привет!

Мы группа людей которые решили помочь другим в решении их проблем, а так же пользователям с поиском самых свежих и качественных инфопродуктов. За 4 с небольшим месяца мы создали этот форум на который заходят ежедневно тысячи человек и посещаемость постоянно растёт. Мы создали панель лицензирования для защиты PHP скриптов от воровства и SEO панель для мониторинга наших сайтов и выбора верной стратегии их развития. Мы надеемся что то что мы создали пригодится Вам и возможно Вы поможете нам развиваться и совершенствоваться вместе с Вами.

Статистика форума

Темы
406.639
Сообщения
465.114
Пользователи
84.591
Новый пользователь
Verinha_21

Приложения форума для iOS и Android


У ркн там нет власти ;)
Приватные разговоры
Помощь Пользователи
    Вы не присоединились ни к одной комнате.