За последнюю неделю опубликовано 36 новых материалов.
Инструкция новичку Путеводитель по форуму Прокси для Telegram Показать подсказки , это бомба!

Скачать Ангелы революции (2014) HDTV 1080i от Files-x бесплатно через торрент

  • Поучаствуй (в качестве покупателя) в любых пяти совместных покупках (кроме завершённых и "Моментальных") и получи группу "Новичок" навсегда -> ссылка на раздел
  • Получай до 480 рублей за каждого приглашенного пользователя!
    представляем Вам очередное расширение партнерской программы, подробности описаны тут -> ссылка
  • 90% материалов доступно к скачиванию после простой регистрации!
    Если же ты хочешь скачивать материалы без требования оставлять отзывы то получи группу "Новичок", 10 способов повышения описаны тут -> ссылка
  • К сожалению количество битых ссылок растет и мы уже не можем их оперативно восстанавливать поэтому просим помощи у каждого нашего пользователя.
    С сегодняшнего дня, за каждую восстановленную ссылку мы заплатим Вам.
    Подробнее тут -> ссылка
  • Перенесем твои заслуги с другого ресурса!
    Мы понимаем как сложно прокачивать аккаунты на форумах, вроде раскачал аккаунт, а тут появляется ресурс в 100 раз круче но тоже с системой прокачки и снова качать аккаунт...
    Предлагаем вам перенести Ваши заслуги на другом подобном ресурсе к нам.
    Подробности описаны тут -> ссылка
  • Вы можете получать по 2.5% с каждой покупки и продажи на маркете! Подробности в теме Партнёрская программа
Если Вы не хотите скачивать, Вы всегда можетепосмотретьонлайн, просто нажмите кнопку ниже :

Открыть плеер

Torrent_Bot

Торрент-Бот
Бот форума
4 Окт 2016
91
163
20
Информация о фильме
Оригинальное название: Ангелы революции
Год выпуска: 2014
Жанр: Драма
Режиссер: Алексей Федорченко
В ролях: Дарья Екамасова, Олег Ягодин, Константин Балакирев, Павел Басов, Георгий Иобадзе, Алексей Солончев

О фильме:
Четверо друзей — поэт, актер, художник и кинорежиссер-примитивист — юные максималисты, ищут в молодой советской власти воплощение своих мечтаний и надежд. Революция бурлит как бутылка с яблочным вином: служебные собаки с крыльями и картошка в виде сердца, веселый нарком здравоохранения Семашко и грустные ангелы, любовь к Государю и любовь к секретарше Аннушке, расстрелы и беременности — все переплавилось и сплелось! Мечты друзей не сбудутся. Очень скоро по ним пройдется катком наша История. Но пока герои живут Грядущим и Любовью…



Выпущено: Россия, Красная стрела
Продолжительность: 01:48:15
Перевод: Не требуется

Файл
Качество: HDTV 1080i
Видео: MPEG-4 AVC, 7541 Кбит/с, 1920x1080
Аудио: Русский (AC3, 6 ch, 448 Кбит/с), (MP2, 2 ch, 192 Кбит/с)

MI
Общее
Идентификатор : 1 (0x1)
Полное имя : F:RipaiAngely.revoliucii.2014.HDTV.1080.Files-x.ts
Формат : MPEG-TS
Размер файла : 6,51 Гбайт
Продолжительность : 1 ч. 48 м.
Режим общего битрейта : Переменный
Общий поток : 8613 Кбит/сек

Видео
Идентификатор : 3551 (0xDDF)
Идентификатор меню : 17015 (0x4277)
Формат : AVC
Формат/Информация : Advanced Video Codec
Профиль формата : [email protected]
Параметр CABAC формата : Да
Параметр ReFrames формата : 4 кадра
Параметр GOP формата : M=1, N=32
Идентификатор кодека : 27
Продолжительность : 1 ч. 48 м.
Битрейт : 7541 Кбит/сек
Ширина : 1920 пикселей
Высота : 1080 пикселей
Соотношение сторон : 16:9
Частота кадров : 25,000 кадров/сек
Цветовое пространство : YUV
Субдискретизация насыщенности : 4:2:0
Битовая глубина : 8 бит
Тип развёртки : Чересстрочная
Порядок развёртки : Верхнее поле первое
Бит/(Пиксели*Кадры) : 0.145
Размер потока : 5,70 Гбайт (88%)
Основные цвета : BT.709
Характеристики трансфера : BT.709
Коэффициенты матрицы : BT.709

Аудио #1
Идентификатор : 3552 (0xDE0)
Идентификатор меню : 17015 (0x4277)
Формат : AC-3
Формат/Информация : Audio Coding 3
Расширение режима : CM (complete main)
Параметр Endianness формата : Big
Идентификатор кодека : 6
Продолжительность : 1 ч. 48 м.
Вид битрейта : Постоянный
Битрейт : 448 Кбит/сек
Каналы : 6 каналов
Расположение каналов : Front: L C R, Side: L R, LFE
Частота : 48,0 КГц
Битовая глубина : 16 бит
Метод сжатия : С потерями
Размер потока : 347 Мбайт (5%)
Язык : Russian

Аудио #2
Идентификатор : 3553 (0xDE1)
Идентификатор меню : 17015 (0x4277)
Формат : MPEG Audio
Версия формата : Version 1
Профиль формата : Layer 2
Идентификатор кодека : 3
Продолжительность : 1 ч. 48 м.
Вид битрейта : Постоянный
Битрейт : 192 Кбит/сек
Каналы : 2 канала
Частота : 48,0 КГц
Метод сжатия : С потерями
Размер потока : 149 Мбайт (2%)
Язык : Russian

Скриншоты

Релиз от:
 

Вложения

  • 33,5 KB Просмотры: 1
    Личеров 0
    Сидеров 0
    Файлов 1
    Объем 6,5 GB

Привет!

Мы группа людей которые решили помочь другим в решении их проблем, а так же пользователям с поиском самых свежих и качественных инфопродуктов. За 4 с небольшим месяца мы создали этот форум на который заходят ежедневно тысячи человек и посещаемость постоянно растёт. Мы создали панель лицензирования для защиты PHP скриптов от воровства и SEO панель для мониторинга наших сайтов и выбора верной стратегии их развития. Мы надеемся что то что мы создали пригодится Вам и возможно Вы поможете нам развиваться и совершенствоваться вместе с Вами.

Статистика форума

Темы
410.478
Сообщения
469.025
Пользователи
85.713
Новый пользователь
existiert

Приложения форума для iOS и Android


У ркн там нет власти ;)
Приватные разговоры
Помощь Пользователи
    Вы не присоединились ни к одной комнате.