За последнюю неделю опубликовано 30 новых материалов.
Инструкция новичку Путеводитель по форуму Прокси для Telegram Показать подсказки , это бомба!

Скачать Ангел света / Gabriel (2007) WEB-DL 1080p | P бесплатно через торрент

  • Поучаствуй (в качестве покупателя) в любых пяти совместных покупках (кроме завершённых и "Моментальных") и получи группу "Новичок" навсегда -> ссылка на раздел
  • Получай до 480 рублей за каждого приглашенного пользователя!
    представляем Вам очередное расширение партнерской программы, подробности описаны тут -> ссылка
  • 90% материалов доступно к скачиванию после простой регистрации!
    Если же ты хочешь скачивать материалы без требования оставлять отзывы то получи группу "Новичок", 10 способов повышения описаны тут -> ссылка
  • К сожалению количество битых ссылок растет и мы уже не можем их оперативно восстанавливать поэтому просим помощи у каждого нашего пользователя.
    С сегодняшнего дня, за каждую восстановленную ссылку мы заплатим Вам.
    Подробнее тут -> ссылка
  • Перенесем твои заслуги с другого ресурса!
    Мы понимаем как сложно прокачивать аккаунты на форумах, вроде раскачал аккаунт, а тут появляется ресурс в 100 раз круче но тоже с системой прокачки и снова качать аккаунт...
    Предлагаем вам перенести Ваши заслуги на другом подобном ресурсе к нам.
    Подробности описаны тут -> ссылка
  • Вы можете получать по 2.5% с каждой покупки и продажи на маркете! Подробности в теме Партнёрская программа
Если Вы не хотите скачивать, Вы всегда можетепосмотретьонлайн, просто нажмите кнопку ниже :

Открыть плеер

Torrent_Bot

Торрент-Бот
Бот форума
4 Окт 2016
93
160
20



Информация о фильме
Название: Ангел света
Оригинальное название: Gabriel
Год выхода: 2007
Жанр: ужасы, фэнтези, боевик, триллер
Режиссер: Шейн Эббесс
В ролях: Энди Уитфилд, Дуэйн Стивенсон, Саманта Ноубл, Майкл Пиччирилли, Джек Кэмпбелл, Эрика Хейнатц, Гарри Павлидис, Кевин Коуплэнд, Мэтт Хилтон Тодд, Брендан Клиркин

О фильме:
Иная действительность. Пространство Небытия между раем и преисподней, где господствует мрак, и ведутся вековые битвы за возрожденные души. Архангел Гавриил — божественный вестник — послан с небес, чтобы вновь разжечь утраченный Свет и низвергнуть власть Тьмы в… Чистилище. Гавриил вынужден принять человеческий облик. Но на пороге решающей битвы с Падшими Ангелами его начинает обуревать внутренняя борьба с собственными человеческими чувствами. Устоит ли Он в этом противоборстве? Ведь Он — последний Луч Надежды в царстве Тьмы.



Страна: Австралия
Студия: HILT Productions, Redline Films
Продолжительность: 01:54:05
Перевод: Профессиональный многоголосый, закадровый

Файл
Кодек: H.264
Качество: WEB-DL 1080p
Видео: AVC, 1920x1080 (16:9), 23.976 fps ~ 6880 Kbps
Звук:
AC3, 48 KHz, 6 ch ~ 448 Kb/s (русский)
E-AC3, 48 KHz, 6 ch ~ 640 Kb/s (английский)
Субтитры: русские, английские

MI:
General
Unique ID : 233466759531792840502273539844098425825 (0xAFA40FF43656D07FA1F1215DC27F03E1)
Complete name : J:wotGabriel.2007.1080p.AMZN.mkv
Format : Matroska
Format version : Version 4 / Version 2
File size : 6.48 GiB
Duration : 1h 54mn
Overall bit rate mode : Variable
Overall bit rate : 8 129 Kbps
Encoded date : UTC 2020-06-25 16:20:06
Writing application : mkvmerge v7.7.0 ('Six Voices') 32bit built on Feb 28 2015 23:23:00
Writing library : libebml v1.3.1 + libmatroska v1.4.2
DURATION : 01:50:04.646000000
NUMBER_OF_FRAMES : 756
NUMBER_OF_BYTES : 45201
_STATISTICS_WRITING_APP : mkvmerge v7.7.0 ('Six Voices') 32bit built on Feb 28 2015 23:23:00
_STATISTICS_WRITING_DATE_UTC : 2020-06-25 16:20:06
_STATISTICS_TAGS : BPS DURATION NUMBER_OF_FRAMES NUMBER_OF_BYTES

Video
ID : 1
Format : AVC
Format/Info : Advanced Video Codec
Format profile : [email protected]
Format settings, CABAC : Yes
Format settings, ReFrames : 4 frames
Codec ID : V_MPEG4/ISO/AVC
Duration : 1h 54mn
Bit rate mode : Variable
Bit rate : 6 879 Kbps
Maximum bit rate : 15.0 Mbps
Width : 1 920 pixels
Height : 1 080 pixels
Display aspect ratio : 16:9
Frame rate mode : Constant
Frame rate : 23.976 fps
Color space : YUV
Chroma subsampling : 4:2:0
Bit depth : 8 bits
Scan type : Progressive
Bits/(Pixel*Frame) : 0.138
Stream size : 5.48 GiB (85%)
Writing library : x264 core 148 r2623 d5b2374
Encoding settings : cabac=1 / ref=4 / deblock=1:-1:-1 / analyse=0x3:0x133 / me=umh / subme=9 / psy=1 / psy_rd=1.00:0.15 / mixed_ref=1 / me_range=24 / chroma_me=1 / trellis=2 / 8x8dct=1 / cqm=0 / deadzone=21,11 / fast_pskip=1 / chroma_qp_offset=-3 / threads=34 / lookahead_threads=5 / sliced_threads=0 / nr=150 / decimate=1 / interlaced=0 / bluray_compat=0 / constrained_intra=0 / bframes=8 / b_pyramid=2 / b_adapt=2 / b_bias=0 / direct=3 / weightb=1 / open_gop=0 / weightp=2 / keyint=120 / keyint_min=61 / scenecut=0 / intra_refresh=0 / rc_lookahead=120 / rc=crf / mbtree=1 / crf=18.0 / qcomp=0.60 / qpmin=0 / qpmax=69 / qpstep=4 / vbv_maxrate=15000 / vbv_bufsize=31250 / crf_max=0.0 / nal_hrd=vbr / filler=0 / ip_ratio=1.40 / aq=3:1.00
Language : English
Default : Yes
Forced : No
Color range : Limited
Color primaries : BT.709
Transfer characteristics : BT.709
Matrix coefficients : BT.709

Audio #1
ID : 2
Format : AC-3
Format/Info : Audio Coding 3
Mode extension : CM (complete main)
Format settings, Endianness : Big
Codec ID : A_AC3
Duration : 1h 54mn
Bit rate mode : Constant
Bit rate : 448 Kbps
Channel(s) : 6 channels
Channel positions : Front: L C R, Side: L R, LFE
Sampling rate : 48.0 KHz
Compression mode : Lossy
Stream size : 366 MiB (6%)
Title : mvo
Language : Russian
Default : Yes
Forced : No

Audio #2
ID : 3
Format : E-AC-3
Format/Info : Audio Coding 3
Format settings, Endianness : Big
Codec ID : A_EAC3
Duration : 1h 54mn
Bit rate mode : Constant
Bit rate : 640 Kbps
Channel(s) : 6 channels
Channel positions : Front: L C R, Side: L R, LFE
Sampling rate : 48.0 KHz
Compression mode : Lossy
Stream size : 522 MiB (8%)
Language : English
Default : No
Forced : No

Text #1
ID : 4
Format : UTF-8
Codec ID : S_TEXT/UTF8
Codec ID/Info : UTF-8 Plain Text
Language : Russian
Default : No
Forced : No

Text #2
ID : 5
Format : UTF-8
Codec ID : S_TEXT/UTF8
Codec ID/Info : UTF-8 Plain Text
Title : Вита Алая
Language : Russian
Default : No
Forced : No

Text #3
ID : 6
Format : UTF-8
Codec ID : S_TEXT/UTF8
Codec ID/Info : UTF-8 Plain Text
Language : English
Default : No
Forced : No

Text #4
ID : 7
Format : UTF-8
Codec ID : S_TEXT/UTF8
Codec ID/Info : UTF-8 Plain Text
Title : SDH
Language : English
Default : No
Forced : No

Menu
00:00:00.000 : en:Studio Logos
00:00:34.000 : en:Opening Credits
00:05:35.000 : en:Sammael grants no clemency to Baliel's plea, warehouse
00:08:20.000 : en:Gabriel observes the city & the people living there, alley
00:09:32.000 : en:Michael warns Gabriel of the strong enemy & advices to proceed with caution, Michael's apartment
00:11:08.000 : en:Gabriel gets visions, alley
00:14:51.000 : en:Gabriel's sense of Arch drives him to the deserted bus where he meets Uriel, bus
00:20:54.000 : en:Gabriel awakens Uriel's silent energies, bus
00:22:25.000 : en:Sammael commands Asmodeus to stay patient, Sammael's lair
00:24:45.000 : en:Uriel tells Gabriel about the fallen's stark sense, bus
00:27:00.000 : en:Uriel tells Gabiel about other Archangels & their fate, bus
00:30:59.000 : en:Gabriel inquires about Jade, Fun House
00:34:43.000 : en:Balan tries to violate Jade, Fun House & street
00:39:11.000 : en:Gabriel heals Jade's wounds, hotel room
00:44:44.000 : en:Sammael asks Lilith to wait for Gabriel's power to diminish, Sammael's lair
00:46:43.000 : en:Jade expresses her dubiety about getting rid of the darkness in the city, balcony
00:47:58.000 : en:Gabriel loses his temper upon seeing Ithuriel abandon his mission, soup kitchen
00:52:31.000 : en:Gabriel heals Raphael's wounds, soup kitchen's basement
00:57:39.000 : en:Sammael & Asmodeus are content to see Gabriel commence his plan, Fun House
00:59:26.000 : en:Gabriel is perplexed at Sammael's placidity in the war, soup kitchen's basement
01:01:22.000 : en:Gabriel enters Ahriman's threshold, warehouse
01:05:37.000 : en:Sammael declares the execution of his plan, club
01:07:18.000 : en:Gabriel sketches Amitiel's picture, Michael's home
01:09:50.000 : en:The soup kitchen explosion claims Ithuriel's life, soup kitchen
01:13:02.000 : en:The Fallen make their move toward getting rid of Urie & Raphael, multiple locations
01:16:03.000 : en:Gabriel is filled with remorse upon finding the dead bodies of his comrades, alley
01:17:21.000 : en:Gabriel makes a vicious attack on Asmodeus & heals Glee, Fun House
01:23:31.000 : en:Jade & Gabriel make love, street & Michael's home
01:27:49.000 : en:Gabriel buys drugs from Max, alley
01:28:47.000 : en:Gabriel injects Lilith with the drugs, club
01:31:28.000 : en:Gabriel's callous chase suddenly comes to a halt, rooftop
01:38:02.000 : en:Sammael easily overpowers Gabriel, rooftop
01:43:15.000 : en:Sammael makes a final act of kindness, rooftop
01:50:24.000 : en:End Credits

Скриншоты
 

Вложения

  • 33,3 KB Просмотры: 0
    Личеров 0
    Сидеров 0
    Файлов 1
    Объем 6,5 GB

Привет!

Мы группа людей которые решили помочь другим в решении их проблем, а так же пользователям с поиском самых свежих и качественных инфопродуктов. За 4 с небольшим месяца мы создали этот форум на который заходят ежедневно тысячи человек и посещаемость постоянно растёт. Мы создали панель лицензирования для защиты PHP скриптов от воровства и SEO панель для мониторинга наших сайтов и выбора верной стратегии их развития. Мы надеемся что то что мы создали пригодится Вам и возможно Вы поможете нам развиваться и совершенствоваться вместе с Вами.

Статистика форума

Темы
406.605
Сообщения
465.025
Пользователи
84.383
Новый пользователь
wazice

Приложения форума для iOS и Android


У ркн там нет власти ;)
Приватные разговоры
Помощь Пользователи
    Вы не присоединились ни к одной комнате.