За последнюю неделю опубликовано 22 новых материалов.
Инструкция новичку Путеводитель по форуму Прокси для Telegram Показать подсказки , это бомба!

Скачать Ангел кровопролития / Satsuriku no Tenshi / Angels of Death [S01] (2018) HDTVRip | Persona99 бесплатно через торрент

  • Поучаствуй (в качестве покупателя) в любых пяти совместных покупках (кроме завершённых и "Моментальных") и получи группу "Новичок" навсегда -> ссылка на раздел
  • Получай до 480 рублей за каждого приглашенного пользователя!
    представляем Вам очередное расширение партнерской программы, подробности описаны тут -> ссылка
  • 90% материалов доступно к скачиванию после простой регистрации!
    Если же ты хочешь скачивать материалы без требования оставлять отзывы то получи группу "Новичок", 10 способов повышения описаны тут -> ссылка
  • К сожалению количество битых ссылок растет и мы уже не можем их оперативно восстанавливать поэтому просим помощи у каждого нашего пользователя.
    С сегодняшнего дня, за каждую восстановленную ссылку мы заплатим Вам.
    Подробнее тут -> ссылка
  • Перенесем твои заслуги с другого ресурса!
    Мы понимаем как сложно прокачивать аккаунты на форумах, вроде раскачал аккаунт, а тут появляется ресурс в 100 раз круче но тоже с системой прокачки и снова качать аккаунт...
    Предлагаем вам перенести Ваши заслуги на другом подобном ресурсе к нам.
    Подробности описаны тут -> ссылка
  • Вы можете получать по 2.5% с каждой покупки и продажи на маркете! Подробности в теме Партнёрская программа

Torrent_Bot

Торрент-Бот
Бот форума
4 Окт 2016
122
115
20



Страна: Япония
Год выпуска: 2018
Жанр: триллер, ужасы
Тип: TV
Продолжительность: 16 эп. по 00:24:00 мин.
Режиссер: Судзуки Кэнтаро
Студия: J.C.Staff

Описание:
Тринадцатилетняя девочка по имени Рэйчел просыпается в подвале здания, не помня, как она попала туда и не зная причин, по которым оказалась в таком затруднительном положении.
Блуждая по зданию в поисках выхода, девочка встречается с Заком — серийным убийцей с бандажом на лице и косой в руках. Отрешённая и лишённая любых стремлений к жизни, Рэйчел просит нового знакомого убить её. Они заключают контракт, по условиям которого Рэй выводит Зака из здания, а после тот убивает её.
Связь между ними углубляется, усиливаясь их сумасшедшим обещанием.
Как они оказались тут? Для каких целей? Что ждёт их в будущем?
Столкнувшись с неизбежной смертью, герои вместе ищут выход из запечатанного здания!
© hrustal

Доп. информация:
Релиз GSGroup


Качество: HDTVRip
Тип релиза: Без хардсаба
Формат видео: AVI
Видео: XviD, 720x400, 23.976 fps, 1324 Kbps, 8 bits
Аудио 1: AC-3, 48.0 KHz, 192 Kbps, 2 channels Язык Русский (в составе контейнера) ; Озвучка: Любительский одноголосый (Persona99)
Аудио 2: AC-3, 48.0 KHz, 192 Kbps, 2 channels Язык Японский ; Озвучка 2: оригинал
Субтитры: ass, srt, внешние ; Язык субтитров русский ; Перевод: YakuSub Studio Перевод: Nika_Elrik, Редакция: Arashi-sama
Подробные тех. данные
General
Complete name : _ESatsuriku no Tenshi1_Satsuriku no Tenshi [Persona99](XviD 720x400 AC3).rus.jap.avi
Format : AVI
Format/Info : Audio Video Interleave
File size : 296 MiB
Duration : 24mn 0s
Overall bit rate : 1 722 Kbps
Writing application : VirtualDubMod 1.5.10.2 (build 2540/release)
Writing library : VirtualDubMod build 2540/release

Video
ID : 0
Format : MPEG-4 Visual
Format profile : Advanced Simple@L5
Format settings, BVOP : 2
Format settings, QPel : No
Format settings, GMC : No warppoints
Format settings, Matrix : Default (H.263)
Codec ID : XVID
Codec ID/Hint : XviD
Duration : 24mn 0s
Bit rate : 1 324 Kbps
Width : 720 pixels
Height : 400 pixels
Display aspect ratio : 16:9
Frame rate : 23.976 fps
Color space : YUV
Chroma subsampling : 4:2:0
Bit depth : 8 bits
Scan type : Progressive
Compression mode : Lossy
Bits/(Pixel*Frame) : 0.192
Stream size : 227 MiB (77%)
Writing library : XviD 67

Audio #1
ID : 1
Format : AC-3
Format/Info : Audio Coding 3
Mode extension : CM (complete main)
Format settings, Endianness : Big
Codec ID : 2000
Duration : 24mn 0s
Bit rate mode : Constant
Bit rate : 192 Kbps
Channel(s) : 2 channels
Channel positions : Front: L R
Sampling rate : 48.0 KHz
Compression mode : Lossy
Stream size : 33.0 MiB (11%)
Alignment : Split accross interleaves
Interleave, duration : 42 ms (1.00 video frame)
Interleave, preload duration : 500 ms

Audio #2
ID : 2
Format : AC-3
Format/Info : Audio Coding 3
Mode extension : CM (complete main)
Format settings, Endianness : Big
Codec ID : 2000
Duration : 24mn 0s
Bit rate mode : Constant
Bit rate : 192 Kbps
Channel(s) : 2 channels
Channel positions : Front: L R
Sampling rate : 48.0 KHz
Compression mode : Lossy
Stream size : 33.0 MiB (11%)
Alignment : Split accross interleaves
Interleave, duration : 42 ms (1.00 video frame)
Interleave, preload duration : 500 ms
Список эпизодов
01. Kill me... please.
02. Your grave is not here.
03. I swear to God.
04. A sinner has no right of choice.
05. Don't let me kill you just yet.
06. Zack is the only one who can kill me.
07. Who are you?
08. Yeah..., I'm a monster.
09. There is no God in this World.
10. The witch trial shall start.
11. 'cause you are my God, Zack.
12. Try to know everything about her.
13. I'm not Your God.
14. Swear you will be killed by me.
15. A vow cannot be stolen.
16. Stop crying and smile.
Скриншоты

Sempl:
 

Вложения

  • 29,5 KB Просмотры: 1
    Личеров 0
    Сидеров 0
    Файлов 48
    Объем 4,6 GB

Привет!

Мы группа людей которые решили помочь другим в решении их проблем, а так же пользователям с поиском самых свежих и качественных инфопродуктов. За 4 с небольшим месяца мы создали этот форум на который заходят ежедневно тысячи человек и посещаемость постоянно растёт. Мы создали панель лицензирования для защиты PHP скриптов от воровства и SEO панель для мониторинга наших сайтов и выбора верной стратегии их развития. Мы надеемся что то что мы создали пригодится Вам и возможно Вы поможете нам развиваться и совершенствоваться вместе с Вами.

Статистика форума

Темы
385.038
Сообщения
430.145
Пользователи
62.611
Новый пользователь
notchare

Приложения форума для iOS и Android


У ркн там нет власти ;)
Приватные разговоры
Помощь Пользователи
    Вы не присоединились ни к одной комнате.