За последнюю неделю опубликовано 30 новых материалов.
Инструкция новичку Путеводитель по форуму Прокси для Telegram Показать подсказки , это бомба!

Скачать Andy Fox - Коллекция (2014-2020) FLAC бесплатно через торрент

  • Поучаствуй (в качестве покупателя) в любых пяти совместных покупках (кроме завершённых и "Моментальных") и получи группу "Новичок" навсегда -> ссылка на раздел
  • Получай до 480 рублей за каждого приглашенного пользователя!
    представляем Вам очередное расширение партнерской программы, подробности описаны тут -> ссылка
  • 90% материалов доступно к скачиванию после простой регистрации!
    Если же ты хочешь скачивать материалы без требования оставлять отзывы то получи группу "Новичок", 10 способов повышения описаны тут -> ссылка
  • К сожалению количество битых ссылок растет и мы уже не можем их оперативно восстанавливать поэтому просим помощи у каждого нашего пользователя.
    С сегодняшнего дня, за каждую восстановленную ссылку мы заплатим Вам.
    Подробнее тут -> ссылка
  • Перенесем твои заслуги с другого ресурса!
    Мы понимаем как сложно прокачивать аккаунты на форумах, вроде раскачал аккаунт, а тут появляется ресурс в 100 раз круче но тоже с системой прокачки и снова качать аккаунт...
    Предлагаем вам перенести Ваши заслуги на другом подобном ресурсе к нам.
    Подробности описаны тут -> ссылка
  • Вы можете получать по 2.5% с каждой покупки и продажи на маркете! Подробности в теме Партнёрская программа

Torrent_Bot

Торрент-Бот
Бот форума
4 Окт 2016
93
160
20



Название: 3 Albums , 4 Singles
Исполнитель: Andy Fox
Год: 2014-2020
Жанр: Italo-Disco
Страна: Italy

Продолжительность: 02:32:38
Формат/Кодек: FLAC
Битрейт аудио: Lossless

2014-Fly Away (feat. Laura) (Single)
01 Fly Away (feat. Laura) 05:53

Продолжительность 05:53

https://www.deezer.com/ru/album/14885407



Лог проверки качества:
ANALYZER: auCDtect: CD records authenticity detector, version 0.8.2
Copyright (c) 2004 Oleg Berngardt. All rights reserved.
Copyright (c) 2004 Alexander Djourik. All rights reserved.

FILE: 01 Fly Away (feat. Laura).flac
Size: 45099576 Hash: CC4B476F46682ED4B29AA477505A1894 Accuracy: -m0
Conclusion: CDDA 100%
Signature: BF73A5499FF440C5146D73394846C7CEA991088E
Dr-log:
Analyzed folder: D:ВидеоклипыconverterAndy FoxFly Away (feat. Laura) (Single)
----------------------------------------------------------------------------------------------
DR Peak RMS Filename
----------------------------------------------------------------------------------------------

DR6 -0.61 dB -7.73 dB 01 Fly Away (feat. Laura).wav
----------------------------------------------------------------------------------------------

Number of files: 1
Official DR value: DR6

2016-Tempus Fugit (Album)
1 Tempus Fugit 06:41
2 Daydream (feat. Vanna) 06:36
3 Xylo Gate 05:13
4 Running Woman 06:30
5 Lost in Time (feat. Oscar) 04:49
6 Second Life 05:50

Продолжительность 00:35:39

https://www.deezer.com/ru/album/13359883


Лог проверки качества:
ANALYZER: auCDtect: CD records authenticity detector, version 0.8.2
Copyright (c) 2004 Oleg Berngardt. All rights reserved.
Copyright (c) 2004 Alexander Djourik. All rights reserved.

FILE: 06 Second Life.flac
Size: 42153091 Hash: 16DF0A1A48CC957D5A7DF37780CF72B4 Accuracy: -m0
Conclusion: CDDA 100%
Signature: FA9EAEC131B21FF9B70081BEE83F17B15E53EED3
FILE: 05 Lost in Time (feat. Oscar).flac
Size: 33066607 Hash: 02B0ACA17BB6CF525071AA927C722AE6 Accuracy: -m0
Conclusion: CDDA 100%
Signature: 325DA139276835BF79C2C7BFBA999AE0B604B92A
FILE: 04 Running Woman.flac
Size: 46012865 Hash: E25771C84FA80CA5954723BB03EC11B6 Accuracy: -m0
Conclusion: CDDA 100%
Signature: DFA5BDC913F6CCBED0080BD53D1B39ACAA86B6BF
FILE: 03 Xylo Gate.flac
Size: 37812000 Hash: A211E6B0B84399C5D242D88360159E36 Accuracy: -m0
Conclusion: CDDA 100%
Signature: BA028BAB4B03C1E7AB1D0F370F1A3B5E636561CA
FILE: 02 Daydream (feat. Vanna).flac
Size: 46532161 Hash: 9DDADF824C14F0D6B03C24767FDB2EF0 Accuracy: -m0
Conclusion: CDDA 99%
Signature: 1EAEF37F42C42B2E623FED382D3957CAAF7BC780
FILE: 01 Tempus Fugit.flac
Size: 48354821 Hash: C74FE5193D1DB615B3E496A3E4D4DC9D Accuracy: -m0
Conclusion: CDDA 99%
Signature: A74A0486645F7E5676606A80C0144EE5AFC7471D
Dr-log:
Analyzed folder: D:ВидеоклипыconverterAndy FoxTempus Fugit (Album)
----------------------------------------------------------------------------------------------
DR Peak RMS Filename
----------------------------------------------------------------------------------------------

DR6 -0.31 dB -8.07 dB 01 Tempus Fugit.wav
DR7 -0.31 dB -8.14 dB 02 Daydream (feat. Vanna).wav
DR7 -0.31 dB -8.25 dB 03 Xylo Gate.wav
DR6 -0.31 dB -8.53 dB 04 Running Woman.wav
DR6 -0.31 dB -7.57 dB 05 Lost in Time (feat. Oscar).wav
DR7 -0.31 dB -8.73 dB 06 Second Life.wav
----------------------------------------------------------------------------------------------

Number of files: 6
Official DR value: DR6
2017-Days of Love (feat. Miko Low) (Single)
01 Days of Love (feat. Miko Low) 04:29

Продолжительность 04:29

https://www.deezer.com/ru/album/44160611



Лог проверки качества:
ANALYZER: auCDtect: CD records authenticity detector, version 0.8.2
Copyright (c) 2004 Oleg Berngardt. All rights reserved.
Copyright (c) 2004 Alexander Djourik. All rights reserved.

FILE: 01 Days of Love (feat. Miko Low).flac
Size: 32554342 Hash: B5F8336714EC319C42E44CD090C0DB94 Accuracy: -m0
Conclusion: CDDA 100%
Signature: 97AA56848A7304AFD6882703B8EE77FE3F7E1F90
Dr-log:
Analyzed folder: D:ВидеоклипыconverterAndy FoxDays of Love (feat. Miko Low) (Single)
----------------------------------------------------------------------------------------------
DR Peak RMS Filename
----------------------------------------------------------------------------------------------

DR7 -0.61 dB -9.54 dB 01 Days of Love (feat. Miko Low).wav
----------------------------------------------------------------------------------------------

Number of files: 1
Official DR value: DR7

2017-Haunted House (Single)
1 Haunted House 4:31
2 Night Time 5:28

Продолжительность 00:09:59

https://www.deezer.com/ru/album/50531522



Лог проверки качества:
ANALYZER: auCDtect: CD records authenticity detector, version 0.8.2
Copyright (c) 2004 Oleg Berngardt. All rights reserved.
Copyright (c) 2004 Alexander Djourik. All rights reserved.

FILE: 02 Night Time.flac
Size: 38228397 Hash: 938FD62358988948863828E099924228 Accuracy: -m0
Conclusion: CDDA 100%
Signature: 7F7827DCCFEFAA04C6C5A1C17C7A9968C76E1684
FILE: 01 Haunted House.flac
Size: 32633777 Hash: 09C0BEF02926D06B158B4D3F88BA5F64 Accuracy: -m0
Conclusion: CDDA 100%
Signature: 203E71F0220631EA8F848D308A5D56A8F1053947
Dr-log:
Analyzed folder: D:ВидеоклипыconverterAndy FoxHaunted House (Single)
----------------------------------------------------------------------------------------------
DR Peak RMS Filename
----------------------------------------------------------------------------------------------

DR7 -0.61 dB -9.19 dB 01 Haunted House.wav
DR7 -0.61 dB -9.65 dB 02 Night Time.wav
----------------------------------------------------------------------------------------------

Number of files: 2
Official DR value: DR7
2017-M M X V I I (Single)
1 Digital Atmosphere 06:30
2 Mechanismo 06:25
3 Wonder Dog 05:56

Продолжительность 00:18:51

https://www.deezer.com/ru/album/14955945


Лог проверки качества:
ANALYZER: auCDtect: CD records authenticity detector, version 0.8.2
Copyright (c) 2004 Oleg Berngardt. All rights reserved.
Copyright (c) 2004 Alexander Djourik. All rights reserved.

FILE: 03 Wonder Dog.flac
Size: 43719971 Hash: CBFA0C6F171222529E64270118C945AF Accuracy: -m0
Conclusion: CDDA 100%
Signature: 2AC9039EE213C602DC54B186264C28DD7B8EE036
FILE: 02 Mechanismo.flac
Size: 48805354 Hash: 79D62813D78E426C3E52044FF6DA431A Accuracy: -m0
Conclusion: CDDA 100%
Signature: 755959E9C7AE4A5B250F1169EB35DACF3ECB10DB
FILE: 01 Digital Atmosphere.flac
Size: 49157425 Hash: 7E777D9F63975BD7F36A7C7B57F8C1B7 Accuracy: -m0
Conclusion: CDDA 100%
Signature: EEEEE18CA703C2516E14C32068EFB00E28FABCFF
Dr-log:
Analyzed folder: D:ВидеоклипыconverterAndy FoxM M X V I I (Single)
----------------------------------------------------------------------------------------------
DR Peak RMS Filename
----------------------------------------------------------------------------------------------

DR6 -0.61 dB -8.01 dB 01 Digital Atmosphere.wav
DR6 -0.61 dB -7.78 dB 02 Mechanismo.wav
DR6 -0.61 dB -8.35 dB 03 Wonder Dog.wav
----------------------------------------------------------------------------------------------

Number of files: 3
Official DR value: DR6
2018-Ritmo! (Album)
1 Desert Souls 04:55
2 Beautiful Stranger (feat. Daria Danatelli) 04:11
3 Letters from Heaven (feat. Cudda Brown) 04:43
4 Just a Girl (feat. Margherita) 05:12
5 Be My Man (feat. Vanna) 06:46
6 Instant Pleasure (feat. Oscar) 06:11
7 Ritmo! 06:24

Продолжительность 00:38:25

https://www.deezer.com/ru/album/55011642


Лог проверки качества:
ANALYZER: auCDtect: CD records authenticity detector, version 0.8.2
Copyright (c) 2004 Oleg Berngardt. All rights reserved.
Copyright (c) 2004 Alexander Djourik. All rights reserved.

FILE: 07 Ritmo!.flac
Size: 44268502 Hash: F7381BBA97A01AB8A197C8F5878A4276 Accuracy: -m0
Conclusion: CDDA 100%
Signature: E58BF8415FE2EE8178EFFAB47A629FEC960FC0A6
FILE: 06 Instant Pleasure (feat. Oscar).flac
Size: 41261535 Hash: CCB30E002645635643AD57AE655203CE Accuracy: -m0
Conclusion: CDDA 100%
Signature: 36CB370D6E27C1172609602B2148622B4FF8DE96
FILE: 05 Be My Man (feat. Vanna).flac
Size: 44744581 Hash: 93E55A4EDA146AA20D5964B61B3B11DC Accuracy: -m0
Conclusion: CDDA 100%
Signature: F5A8723ED0495F360326BEE7294715AC7CC7A966
FILE: 04 Just a Girl (feat. Margherita).flac
Size: 35378624 Hash: 7D2E5226437F587EDD4D44EDB49EFCC5 Accuracy: -m0
Conclusion: CDDA 100%
Signature: EA4C1B508F232152D4981E94BD8F2D93DDBEE17A
FILE: 03 Letters from Heaven (feat. Cudda Brown).flac
Size: 31645659 Hash: 8D55399332CBC5C640CCA3D72407EACF Accuracy: -m0
Conclusion: CDDA 100%
Signature: 3022A2AACC47B9D16A10B5B86BA55CC9F1A39712
FILE: 02 Beautiful Stranger (feat. Daria Danatelli).flac
Size: 29953030 Hash: 569DA72B7887C52597434126067D90F2 Accuracy: -m0
Conclusion: CDDA 100%
Signature: B4AFF4AFA7CF05EDA0EC1E660887768E473ABE28
FILE: 01 Desert Souls.flac
Size: 34281029 Hash: E40FDDF2AE35C7238BB2E533626444AE Accuracy: -m0
Conclusion: CDDA 100%
Signature: E67B342D2F44FEBF99A9A68EF8092AF1A5E44507
Dr-log:
Analyzed folder: D:ВидеоклипыconverterAndy FoxRitmo! (Album)
----------------------------------------------------------------------------------------------
DR Peak RMS Filename
----------------------------------------------------------------------------------------------

DR8 -0.61 dB -9.61 dB 01 Desert Souls.wav
DR7 -0.61 dB -9.41 dB 02 Beautiful Stranger (feat. Daria Danatelli).wav
DR7 -0.61 dB -8.51 dB 03 Letters from Heaven (feat. Cudda Brown).wav
DR7 -0.61 dB -8.97 dB 04 Just a Girl (feat. Margherita).wav
DR7 -0.61 dB -9.22 dB 05 Be My Man (feat. Vanna).wav
DR7 -0.61 dB -9.92 dB 06 Instant Pleasure (feat. Oscar).wav
DR7 -0.61 dB -8.74 dB 07 Ritmo!.wav
----------------------------------------------------------------------------------------------

Number of files: 7
Official DR value: DR7
2020-Browser Cat (Album)
1 Browser Cat 04:43
2 She's Gone (feat. Roxi Drive)05:27
3 Netizen 05:02
4 Venus Dot-Com 04:38
5 Fading Away (feat. Francesca) 06:26
6 One More Dance (feat. Oceanside85) 06:50
7 Age / Sex / Location? 06:13

Продолжительность 00:39:22

https://www.deezer.com/ru/album/131673612


Лог проверки качества:
ANALYZER: auCDtect: CD records authenticity detector, version 0.8.2
Copyright (c) 2004 Oleg Berngardt. All rights reserved.
Copyright (c) 2004 Alexander Djourik. All rights reserved.

FILE: 07 Age Sex Location.flac
Size: 40836768 Hash: BF57DFD1D4DBCA19B69280BDD0359D2E Accuracy: -m0
Conclusion: CDDA 100%
Signature: FA3EF9C4620FA6BBA1809F1C690ECBF64BD8E8BA
FILE: 06 One More Dance (feat. Oceanside85).flac
Size: 46010732 Hash: 033FB650676CFF85BDF352E9221EF334 Accuracy: -m0
Conclusion: CDDA 100%
Signature: C221A4C7E7E4151FEAA55DD13B84A3769BA02130
FILE: 05 Fading Away (feat. Francesca).flac
Size: 44900510 Hash: 0892C0CD7A1B4F77FA3737CE1B3BDD8D Accuracy: -m0
Conclusion: CDDA 99%
Signature: FA0D0B1DEE3F5BD082F63FD6CDCDCDCD79D85885
FILE: 04 Venus Dot-Com.flac
Size: 31724864 Hash: 1C263AB76726AE277E600576875D93B7 Accuracy: -m0
Conclusion: CDDA 100%
Signature: B84636B1FE68DA67559B031D48CF2EE78D3CF64C
FILE: 03 Netizen.flac
Size: 34076453 Hash: 74B52922ED63747DB84C21E76B79F8AD Accuracy: -m0
Conclusion: CDDA 100%
Signature: 2499EBED652856FF6EBB7EB0415206A262534D12
FILE: 02 She's Gone (feat. Roxi Drive).flac
Size: 37507931 Hash: 44945EAC61F071F4FC93E2E10538EFC7 Accuracy: -m0
Conclusion: CDDA 99%
Signature: 928290998CC4AFBFFC4E4472D2085B387B04CAC4
FILE: 01 Browser Cat.flac
Size: 31651360 Hash: E85B943E9A91C666CC935E0F7E9738EA Accuracy: -m0
Conclusion: CDDA 100%
Signature: 69B49DEEB91A3A2F30DEE18A76768C243161CFC8
Dr-log:
Analyzed folder: D:ВидеоклипыconverterAndy FoxBrowser Cat (Album)
----------------------------------------------------------------------------------------------
DR Peak RMS Filename
----------------------------------------------------------------------------------------------

DR7 -0.94 dB -10.09 dB 01 Browser Cat.wav
DR7 -0.92 dB -9.70 dB 02 She's Gone (feat. Roxi Drive).wav
DR8 -0.93 dB -10.94 dB 03 Netizen.wav
DR8 -0.94 dB -10.04 dB 04 Venus Dot-Com.wav
DR8 -0.88 dB -10.28 dB 05 Fading Away (feat. Francesca).wav
DR8 -0.93 dB -10.91 dB 06 One More Dance (feat. Oceanside85).wav
DR9 -0.95 dB -11.60 dB 07 Age Sex Location.wav
----------------------------------------------------------------------------------------------

Number of files: 7
Official DR value: DR8
 

Вложения

  • 13,7 KB Просмотры: 0
    Личеров 0
    Сидеров 0
    Файлов 34
    Объем 1 GB

Привет!

Мы группа людей которые решили помочь другим в решении их проблем, а так же пользователям с поиском самых свежих и качественных инфопродуктов. За 4 с небольшим месяца мы создали этот форум на который заходят ежедневно тысячи человек и посещаемость постоянно растёт. Мы создали панель лицензирования для защиты PHP скриптов от воровства и SEO панель для мониторинга наших сайтов и выбора верной стратегии их развития. Мы надеемся что то что мы создали пригодится Вам и возможно Вы поможете нам развиваться и совершенствоваться вместе с Вами.

Статистика форума

Темы
406.605
Сообщения
465.028
Пользователи
84.390
Новый пользователь
князь владимир

Приложения форума для iOS и Android


У ркн там нет власти ;)
Приватные разговоры
Помощь Пользователи
    Вы не присоединились ни к одной комнате.