За последнюю неделю опубликовано 82 новых материалов.
Инструкция новичку Путеводитель по форуму Прокси для Telegram Показать подсказки , это бомба!

Скачать Анализируй это / Analyze This (1999) BDRip-HEVC 1080p | D, A бесплатно через торрент

  • Поучаствуй (в качестве покупателя) в любых пяти совместных покупках (кроме завершённых и "Моментальных") и получи группу "Новичок" навсегда -> ссылка на раздел
  • Получай до 480 рублей за каждого приглашенного пользователя!
    представляем Вам очередное расширение партнерской программы, подробности описаны тут -> ссылка
  • 90% материалов доступно к скачиванию после простой регистрации!
    Если же ты хочешь скачивать материалы без требования оставлять отзывы то получи группу "Новичок", 10 способов повышения описаны тут -> ссылка
  • К сожалению количество битых ссылок растет и мы уже не можем их оперативно восстанавливать поэтому просим помощи у каждого нашего пользователя.
    С сегодняшнего дня, за каждую восстановленную ссылку мы заплатим Вам.
    Подробнее тут -> ссылка
  • Перенесем твои заслуги с другого ресурса!
    Мы понимаем как сложно прокачивать аккаунты на форумах, вроде раскачал аккаунт, а тут появляется ресурс в 100 раз круче но тоже с системой прокачки и снова качать аккаунт...
    Предлагаем вам перенести Ваши заслуги на другом подобном ресурсе к нам.
    Подробности описаны тут -> ссылка
  • Вы можете получать по 2.5% с каждой покупки и продажи на маркете! Подробности в теме Партнёрская программа
Если Вы не хотите скачивать, Вы всегда можетепосмотретьонлайн, просто нажмите кнопку ниже :

Открыть плеер

Torrent_Bot

Торрент-Бот
Бот форума
4 Окт 2016
104
152
20



Название: Анализируй это
Оригинальное название: Analyze This
Год выхода: 1999
Жанр: комедия, криминал
Режиссер: Харольд Рэмис
В ролях: Роберт Де Ниро, Билли Кристал, Лиза Кудроу, Чазз Пальминтери, Джо Витерелли, Молли Шеннон, Кайл Сабихи, Макс Казелла, Билл Мэйси, Ребекка Шалл

О фильме: Пол Витти — влиятельный нью-йоркский мафиози на грани нервного срыва. Все гангстеры в шоке: как помочь своему чокнутому боссу? Бен Соболь — обычный психоаналитик. У него есть всего несколько дней на то, чтобы помочь крестному отцу справиться с депрессией.



Страна: США, Австралия
Студия: Warner Bros., Universal Pictures, Tribeca Productions
Продолжительность: 01:43:30
Перевод: дублированный, авторский одноголосый

Качество: BDRip-HEVC 1080p
Кодек: HEVC (x265)
Видео: 1920x1080 (16:9), 8517 Кбит/сек, HEVC (Main10@L.4.1@High) 10 бит
Звук:
Аудио1: AC3, 6 ch, 640 Kbps - русский Дублированный
Аудио2: AC3, 6 ch, 640 Kbps - русский Авторский (Михаил Чадов)
Аудио3: AC3, 6 ch, 640 Kbps - русский Авторский (Павел Санаев)
Аудио4: AC3, 6 ch, 448 Kbps - русский Авторский (Юрий Живов)
Аудио5: AC3, 2 ch, 192 Kbps - русский Авторский (Александр Кашкин)
Аудио6: AC3, 2 ch, 192 Kbps - русский Авторский (Максим Латышев (диктор CDV))
Аудио7: AC3, 2 ch, 192 Kbps - русский Авторский (Андрей Дольский)
Аудио8: AC3, 2 ch, 192 Kbps - русский Авторский (Николай Антонов)
Аудио9: AC3, 6 ch, 640 Kbps - english Original
Субтитры: Русские полные (SRT), English full (SRT, SDH)
Навигация по главам: Есть

Лог (x265 info)
x265 [info]: frame I: 621, Avg QP:18.07 kb/s: 19167.37
x265 [info]: frame P: 25966, Avg QP:19.49 kb/s: 14475.63
x265 [info]: frame B: 122322, Avg QP:21.41 kb/s: 7197.68
x265 [info]: Weighted P-Frames: Y:3.4% UV:2.4%
x265 [info]: Weighted B-Frames: Y:4.3% UV:2.5%
x265 [info]: consecutive B-frames: 1.0% 3.3% 2.2% 38.9% 10.0% 12.8% 9.1% 15.3% 2.9% 1.4% 1.0% 1.2% 0.3% 0.3% 0.2%
x265 [info]: encoded 148909 frames in 135576.02s (1.10 fps), 8516.69 kb/s, Avg QP:21.06
Mediainfo
Формат : Matroska
Версия формата : Version 4
Размер файла : 8,89 Гбайт
Продолжительность : 1 ч. 43 м.
Общий поток : 12,3 Мбит/сек
Название фильма : Анализируй.это.Analyze.This.1999.BDRip-HEVC.1080p
Дата кодирования : UTC 2020-05-16 18:56:40
Программа кодирования : mkvmerge v46.0.0 ('No Deeper Escape') 64-bit
Библиотека кодирования : libebml v1.3.10 + libmatroska v1.5.2

Видео
Идентификатор : 1
Формат : HEVC
Формат/Информация : High Efficiency Video Coding
Профиль формата : Main 10@L4@Main
Идентификатор кодека : V_MPEGH/ISO/HEVC
Продолжительность : 1 ч. 43 м.
Битрейт : 8 517 Кбит/сек
Ширина : 1 920 пикселей
Высота : 1 080 пикселей
Соотношение сторон : 16:9
Режим частоты кадров : Постоянный
Частота кадров : 23,976 (24000/1001) кадра/сек
Цветовое пространство : YUV
Субдискретизация насыщенности : 4:2:0
Битовая глубина : 10 бит
Бит/(Пиксели*Кадры) : 0.171
Размер потока : 6,16 Гбайт (69%)
Заголовок : Analyze This / Rip by OldGamer
Библиотека кодирования : x265 3.3+2-gd9a7411cc:[Windows][MSVC 1925][64 bit] 10bit
Настройки программы : cpuid=1111039 / frame-threads=3 / numa-pools=8 / wpp / no-pmode / no-pme / no-psnr / no-ssim / log-level=2 / input-csp=1 / input-res=1920x1080 / interlace=0 / total-frames=148909 / level-idc=0 / high-tier=1 / uhd-bd=0 / ref=5 / no-allow-non-conformance / no-repeat-headers / annexb / no-aud / no-hrd / info / hash=0 / no-temporal-layers / open-gop / min-keyint=23 / keyint=240 / gop-lookahead=0 / bframes=14 / b-adapt=2 / b-pyramid / bframe-bias=0 / rc-lookahead=60 / lookahead-slices=0 / scenecut=40 / hist-scenecut=0 / radl=0 / no-splice / no-intra-refresh / ctu=64 / min-cu-size=8 / rect / amp / max-tu-size=32 / tu-inter-depth=4 / tu-intra-depth=4 / limit-tu=1 / rdoq-level=2 / dynamic-rd=0.00 / no-ssim-rd / signhide / no-tskip / nr-intra=0 / nr-inter=0 / no-constrained-intra / no-strong-intra-smoothing / max-merge=5 / limit-refs=3 / no-limit-modes / me=3 / subme=7 / merange=57 / temporal-mvp / no-frame-dup / no-hme / weightp / weightb / no-analyze-src-pics / deblock=-3:-3 / no-sao / no-sao-non-deblock / rd=6 / selective-sao=0 / no-early-skip / rskip / no-fast-intra / no-tskip-fast / no-cu-lossless / b-intra / no-splitrd-skip / rdpenalty=0 / psy-rd=2.00 / psy-rdoq=1.00 / no-rd-refine / no-lossless / cbqpoffs=0 / crqpoffs=0 / rc=crf / crf=19.2 / qcomp=0.60 / qpstep=4 / stats-write=0 / stats-read=0 / ipratio=1.40 / pbratio=1.30 / aq-mode=4 / aq-strength=0.80 / no-cutree / zone-count=1 / zones: / start-frame=142931 / end-frame=148907 / qp=36 / no-strict-cbr / qg-size=32 / no-rc-grain / qpmax=69 / qpmin=0 / no-const-vbv / sar=1 / overscan=0 / videoformat=5 / range=0 / colorprim=2 / transfer=2 / colormatrix=2 / chromaloc=0 / display-window=0 / cll=0,0 / min-luma=0 / max-luma=1023 / log2-max-poc-lsb=8 / vui-timing-info / vui-hrd-info / slices=1 / no-opt-qp-pps / no-opt-ref-list-length-pps / no-multi-pass-opt-rps / scenecut-bias=0.00 / hist-threshold=0.01 / no-opt-cu-delta-qp / no-aq-motion / no-hdr10 / no-hdr10-opt / no-dhdr10-opt / no-idr-recovery-sei / analysis-reuse-level=0 / analysis-save-reuse-level=0 / analysis-load-reuse-level=0 / scale-factor=0 / refine-intra=0 / refine-inter=0 / refine-mv=1 / refine-ctu-distortion=0 / no-limit-sao / ctu-info=0 / no-lowpass-dct / refine-analysis-type=0 / copy-pic=1 / max-ausize-factor=1.0 / no-dynamic-refine / no-single-sei / no-hevc-aq / no-svt / no-field / qp-adaptation-range=1.00 / no-scenecut-aware-qpconformance-window-offsets / right=0 / bottom=0
Язык : English
Default : Да
Forced : Нет

Аудио #1
Идентификатор : 2
Формат : AC-3
Формат/Информация : Audio Coding 3
Коммерческое название : Dolby Digital
Идентификатор кодека : A_AC3
Продолжительность : 1 ч. 43 м.
Вид битрейта : Постоянный
Битрейт : 640 Кбит/сек
Каналы : 6 каналов
Channel layout : L R C LFE Ls Rs
Частота : 48,0 КГц
Частота кадров : 31,250 кадров/сек (1536 SPF)
Метод сжатия : С потерями
Размер потока : 474 Мбайт (5%)
Заголовок : Dub (Blu-ray CEE)
Язык : Russian
Service kind : Complete Main
Default : Да
Forced : Нет

Аудио #2
Идентификатор : 3
Формат : AC-3
Формат/Информация : Audio Coding 3
Коммерческое название : Dolby Digital
Идентификатор кодека : A_AC3
Продолжительность : 1 ч. 43 м.
Вид битрейта : Постоянный
Битрейт : 640 Кбит/сек
Каналы : 6 каналов
Channel layout : L R C LFE Ls Rs
Частота : 48,0 КГц
Частота кадров : 31,250 кадров/сек (1536 SPF)
Метод сжатия : С потерями
Размер потока : 474 Мбайт (5%)
Заголовок : AVO (Михаил Чадов)
Язык : Russian
Service kind : Complete Main
Default : Нет
Forced : Нет

Аудио #3
Идентификатор : 4
Формат : AC-3
Формат/Информация : Audio Coding 3
Коммерческое название : Dolby Digital
Идентификатор кодека : A_AC3
Продолжительность : 1 ч. 43 м.
Вид битрейта : Постоянный
Битрейт : 640 Кбит/сек
Каналы : 6 каналов
Channel layout : L R C LFE Ls Rs
Частота : 48,0 КГц
Частота кадров : 31,250 кадров/сек (1536 SPF)
Метод сжатия : С потерями
Размер потока : 474 Мбайт (5%)
Заголовок : AVO (Павел Санаев)
Язык : Russian
Service kind : Complete Main
Default : Нет
Forced : Нет

Аудио #4
Идентификатор : 5
Формат : AC-3
Формат/Информация : Audio Coding 3
Коммерческое название : Dolby Digital
Идентификатор кодека : A_AC3
Продолжительность : 1 ч. 43 м.
Вид битрейта : Постоянный
Битрейт : 448 Кбит/сек
Каналы : 6 каналов
Channel layout : L R C LFE Ls Rs
Частота : 48,0 КГц
Частота кадров : 31,250 кадров/сек (1536 SPF)
Метод сжатия : С потерями
Размер потока : 332 Мбайт (4%)
Заголовок : AVO (Юрий Живов)
Язык : Russian
Service kind : Complete Main
Default : Нет
Forced : Нет

Аудио #5
Идентификатор : 6
Формат : AC-3
Формат/Информация : Audio Coding 3
Коммерческое название : Dolby Digital
Идентификатор кодека : A_AC3
Продолжительность : 1 ч. 43 м.
Вид битрейта : Постоянный
Битрейт : 192 Кбит/сек
Каналы : 2 канала
Channel layout : L R
Частота : 48,0 КГц
Частота кадров : 31,250 кадров/сек (1536 SPF)
Метод сжатия : С потерями
Размер потока : 142 Мбайт (2%)
Заголовок : AVO (Александр Кашкин)
Язык : Russian
Service kind : Complete Main
Default : Нет
Forced : Нет

Аудио #6
Идентификатор : 7
Формат : AC-3
Формат/Информация : Audio Coding 3
Коммерческое название : Dolby Digital
Идентификатор кодека : A_AC3
Продолжительность : 1 ч. 43 м.
Вид битрейта : Постоянный
Битрейт : 192 Кбит/сек
Каналы : 2 канала
Channel layout : L R
Частота : 48,0 КГц
Частота кадров : 31,250 кадров/сек (1536 SPF)
Метод сжатия : С потерями
Размер потока : 142 Мбайт (2%)
Заголовок : AVO (Максим Латышев) (диктор CDV)
Язык : Russian
Service kind : Complete Main
Default : Нет
Forced : Нет

Аудио #7
Идентификатор : 8
Формат : AC-3
Формат/Информация : Audio Coding 3
Коммерческое название : Dolby Digital
Идентификатор кодека : A_AC3
Продолжительность : 1 ч. 43 м.
Вид битрейта : Постоянный
Битрейт : 192 Кбит/сек
Каналы : 2 канала
Channel layout : L R
Частота : 48,0 КГц
Частота кадров : 31,250 кадров/сек (1536 SPF)
Метод сжатия : С потерями
Размер потока : 142 Мбайт (2%)
Заголовок : AVO (Андрей Дольский)
Язык : Russian
Service kind : Complete Main
Default : Нет
Forced : Нет

Аудио #8
Идентификатор : 9
Формат : AC-3
Формат/Информация : Audio Coding 3
Коммерческое название : Dolby Digital
Идентификатор кодека : A_AC3
Продолжительность : 1 ч. 43 м.
Вид битрейта : Постоянный
Битрейт : 192 Кбит/сек
Каналы : 2 канала
Channel layout : L R
Частота : 48,0 КГц
Частота кадров : 31,250 кадров/сек (1536 SPF)
Метод сжатия : С потерями
Размер потока : 142 Мбайт (2%)
Заголовок : AVO (Николай Антонов)
Язык : Russian
Service kind : Complete Main
Default : Нет
Forced : Нет

Аудио #9
Идентификатор : 10
Формат : AC-3
Формат/Информация : Audio Coding 3
Коммерческое название : Dolby Digital
Идентификатор кодека : A_AC3
Продолжительность : 1 ч. 43 м.
Вид битрейта : Постоянный
Битрейт : 640 Кбит/сек
Каналы : 6 каналов
Channel layout : L R C LFE Ls Rs
Частота : 48,0 КГц
Частота кадров : 31,250 кадров/сек (1536 SPF)
Метод сжатия : С потерями
Размер потока : 474 Мбайт (5%)
Заголовок : Original
Язык : English
Service kind : Complete Main
Default : Нет
Forced : Нет

Текст #1
Идентификатор : 11
Формат : UTF-8
Идентификатор кодека : S_TEXT/UTF8
Идентификатор кодека/Информация : UTF-8 Plain Text
Продолжительность : 1 ч. 39 м.
Битрейт : 132 бит/сек
Count of elements : 1779
Размер потока : 96,5 Кбайт (0%)
Заголовок : Blu-Ray
Язык : Russian
Default : Нет
Forced : Нет

Текст #2
Идентификатор : 12
Формат : UTF-8
Идентификатор кодека : S_TEXT/UTF8
Идентификатор кодека/Информация : UTF-8 Plain Text
Продолжительность : 1 ч. 39 м.
Битрейт : 131 бит/сек
Count of elements : 1773
Размер потока : 95,7 Кбайт (0%)
Заголовок : DVD
Язык : Russian
Default : Нет
Forced : Нет

Текст #3
Идентификатор : 13
Формат : UTF-8
Идентификатор кодека : S_TEXT/UTF8
Идентификатор кодека/Информация : UTF-8 Plain Text
Продолжительность : 1 ч. 39 м.
Битрейт : 90 бит/сек
Count of elements : 1877
Размер потока : 65,9 Кбайт (0%)
Язык : English
Default : Нет
Forced : Нет

Текст #4
Идентификатор : 14
Формат : UTF-8
Идентификатор кодека : S_TEXT/UTF8
Идентификатор кодека/Информация : UTF-8 Plain Text
Продолжительность : 1 ч. 42 м.
Битрейт : 85 бит/сек
Count of elements : 1872
Размер потока : 64,0 Кбайт (0%)
Заголовок : SDH
Язык : English
Default : Нет
Forced : Нет

Меню
00:00:00.000 : en:Family History (Credits)
00:03:41.179 : en:It's a Hit
00:05:30.664 : en:Reflections on Caroline
00:07:36.414 : en:Relatively Painless
00:08:40.395 : en:Close Encounter
00:10:48.731 : en:Getting Hostile
00:12:36.214 : en:Not a Panic Attack
00:16:29.030 : en:Office Visit
00:22:59.878 : en:What Primo Wants
00:24:35.474 : en:Not Happening
00:27:17.427 : en:Gangster Under Stress
00:33:36.640 : en:Not Treating Him
00:35:03.685 : en:All Wet
00:36:49.499 : en:Greek to Him
00:39:50.471 : en:The Captain and Black Milk
00:42:18.828 : en:Guy Stuff
00:43:43.996 : en:Wedding Day Victims
00:47:46.822 : en:Closure With Primo
00:50:08.881 : en:Shrink Under Stress
00:54:34.688 : en:The Godfather Dream
00:58:38.140 : en:Mutual Analysis
01:01:49.748 : en:Truth Over Pasta
01:06:04.752 : en:Reaching Out
01:08:38.406 : en:A Sorry State
01:12:54.078 : en:Bang-Bang!
01:15:59.305 : en:Her Bucking Bronco
01:17:32.773 : en:There Goes the Groom
01:21:15.954 : en:A Vague Plan
01:23:20.037 : en:Blending In
01:26:08.747 : en:The Consigliere
01:29:40.083 : en:problem With Aggression
01:33:48.039 : en:Bullet Taken
01:37:08.322 : en:Live Music
01:39:22.456 : en:End Credits
Скриншоты


Релиз от: OldGamer
 

Вложения

  • 45,4 KB Просмотры: 0
    Личеров 0
    Сидеров 0
    Файлов 1
    Объем 8,9 GB

Привет!

Мы группа людей которые решили помочь другим в решении их проблем, а так же пользователям с поиском самых свежих и качественных инфопродуктов. За 4 с небольшим месяца мы создали этот форум на который заходят ежедневно тысячи человек и посещаемость постоянно растёт. Мы создали панель лицензирования для защиты PHP скриптов от воровства и SEO панель для мониторинга наших сайтов и выбора верной стратегии их развития. Мы надеемся что то что мы создали пригодится Вам и возможно Вы поможете нам развиваться и совершенствоваться вместе с Вами.

Статистика форума

Темы
404.531
Сообщения
461.403
Пользователи
80.030
Новый пользователь
sham945

Приложения форума для iOS и Android


У ркн там нет власти ;)
Приватные разговоры
Помощь Пользователи
    Вы не присоединились ни к одной комнате.