За последнюю неделю опубликовано 66 новых материалов.
Инструкция новичку Путеводитель по форуму Прокси для Telegram Показать подсказки , это бомба!

Скачать Амфибия / Amphibia [02x01-10 из 20] (2020) WEB-DL 1080p | HDRezka Studio бесплатно через торрент

  • Поучаствуй (в качестве покупателя) в любых пяти совместных покупках (кроме завершённых и "Моментальных") и получи группу "Новичок" навсегда -> ссылка на раздел
  • Получай до 480 рублей за каждого приглашенного пользователя!
    представляем Вам очередное расширение партнерской программы, подробности описаны тут -> ссылка
  • 90% материалов доступно к скачиванию после простой регистрации!
    Если же ты хочешь скачивать материалы без требования оставлять отзывы то получи группу "Новичок", 10 способов повышения описаны тут -> ссылка
  • К сожалению количество битых ссылок растет и мы уже не можем их оперативно восстанавливать поэтому просим помощи у каждого нашего пользователя.
    С сегодняшнего дня, за каждую восстановленную ссылку мы заплатим Вам.
    Подробнее тут -> ссылка
  • Перенесем твои заслуги с другого ресурса!
    Мы понимаем как сложно прокачивать аккаунты на форумах, вроде раскачал аккаунт, а тут появляется ресурс в 100 раз круче но тоже с системой прокачки и снова качать аккаунт...
    Предлагаем вам перенести Ваши заслуги на другом подобном ресурсе к нам.
    Подробности описаны тут -> ссылка
  • Вы можете получать по 2.5% с каждой покупки и продажи на маркете! Подробности в теме Партнёрская программа
Если Вы не хотите скачивать, Вы всегда можетепосмотретьонлайн, просто нажмите кнопку ниже :

Открыть плеер

Torrent_Bot

Торрент-Бот
Бот форума
4 Окт 2016
92
163
20



Информация о фильме
Название: Амфибия
Оригинальное название: Amphibia
Год выхода: 2020
Жанр: мультфильм, короткометражка, фэнтези
Режиссер: Дерек Кирк Ким, Берт Юн, Джозеф Д. Джонстон
В ролях:


Бренда Сонг(Anne Boonchuy), Джастин Фелбингер(Sprig Plantar), Билл Фармер(Hop Pop), Аманда Лейтон(Polly Plantar), Иден Ригел(дополнительные голоса), Джеймс Патрик Стюарт(One-Eyed Wally), Сэм Ригел(дополнительные голоса), Ди Брэдли Бейкер(дополнительные голоса), Стивен Рут(Mayor Toadstool), Лайла Берзиньш(Mrs. Croaker), Брайан Мейлар(Leopold Loggle), Джек Макбрайер(Toadie)

О фильме:
13-летняя Энн оказывается в волшебном мире земноводных, сельской болотистой местности, которая полна человекоподобными лягушками. С помощью азартной молодой лягушки по имени Прутик, Энн превратится в героя и откроет для себя первую настоящую дружбу в своей жизни.



Страна: США
Студия: Walt Disney Television Animation
Продолжительность: ~ 00:11:54
Перевод: Профессиональный (многоголосый, закадровый) | HDRezka Studio

Файл
Кодек: AVC
Качество: WEB-DL 1080p
Видео: 1920x1080 (16:9), 23,976 fps, AVC, ~ 5397 kbps avg, 0,109 bit/pixel
Аудио #1: Русский, 48 kHz, AC3, 2 ch, 192 kbps avg | Профессиональный (многоголосый, закадровый)|HDRezka Studio
Аудио #2: Английский, AAC, 2 ch, 64 kbps avg | Оригинал
Субтитры: английские

Премьера (мир): 14 июня 2019 (США)
Премьера в РФ: 14 октября 2019

Реклама:Отсутствует

MediaInfo
General
Unique ID : 100969779002521703035439414233180022158 (0x4BF6127438E9BBE5BB620CDA32FE258E)
Complete name : P:plex ContentCartoonsАмфибияAmphibia.S02.1080p.AMZN.WEB-DL_DreamcatcherAmphibia.S02E01.1080p.AMZN.WEB-DL_Dreamcatcher.mkv
Format : Matroska
Format version : Version 4 / Version 2
File size : 481 MiB
Duration : 11 min
Overall bit rate : 5 654 kb/s
Encoded date : UTC 2020-07-15 17:35:32
Writing application : mkvmerge v44.0.0 ('Domino') 64-bit
Writing library : libebml v1.3.10 + libmatroska v1.5.2

Video
ID : 1
Format : AVC
Format/Info : Advanced Video Codec
Format profile : [email protected]
Format settings, CABAC : Yes
Format settings, ReFrames : 4 frames
Codec ID : V_MPEG4/ISO/AVC
Duration : 11 min
Bit rate : 5 398 kb/s
Width : 1 920 pixels
Height : 1 080 pixels
Display aspect ratio : 16:9
Frame rate mode : Constant
Frame rate : 23.976 (24000/1001) FPS
Color space : YUV
Chroma subsampling : 4:2:0
Bit depth : 8 bits
Scan type : Progressive
Bits/(Pixel*Frame) : 0.109
Stream size : 459 MiB (95%)
Language : English
Default : Yes
Forced : No

Audio #1
ID : 2
Format : AC-3
Format/Info : Audio Coding 3
Mode extension : CM (complete main)
Format settings, Endianness : Big
Codec ID : A_AC3
Duration : 11 min
Bit rate mode : Constant
Bit rate : 192 kb/s
Channel(s) : 2 channels
Channel positions : Front: L R
Sampling rate : 48.0 kHz
Frame rate : 31.250 FPS (1536 spf)
Compression mode : Lossy
Stream size : 16.3 MiB (3%)
Title : HDRezka Studio
Language : Russian
Default : Yes
Forced : No

Audio #2
ID : 3
Format : AAC
Format/Info : Advanced Audio Codec
Format profile : HE-AAC / LC
Codec ID : A_AAC
Duration : 11 min
Bit rate : 64.0 kb/s
Channel(s) : 2 channels
Channel positions : Front: L R
Sampling rate : 48.0 kHz / 24.0 kHz
Frame rate : 23.438 FPS (1024 spf)
Compression mode : Lossy
Delay relative to video : 167 ms
Stream size : 5.45 MiB (1%)
Language : English
Default : No
Forced : No

Text
ID : 4
Format : UTF-8
Codec ID : S_TEXT/UTF8
Codec ID/Info : UTF-8 Plain Text
Duration : 11 min
Bit rate : 84 b/s
Count of elements : 229
Stream size : 7.06 KiB (0%)
Language : English
Default : No
Forced : No
Скриншоты



Релиз: Dreamcatcher
 

Вложения

  • 91,9 KB Просмотры: 0
    Личеров 0
    Сидеров 0
    Файлов 10
    Объем 4,5 GB

Привет!

Мы группа людей которые решили помочь другим в решении их проблем, а так же пользователям с поиском самых свежих и качественных инфопродуктов. За 4 с небольшим месяца мы создали этот форум на который заходят ежедневно тысячи человек и посещаемость постоянно растёт. Мы создали панель лицензирования для защиты PHP скриптов от воровства и SEO панель для мониторинга наших сайтов и выбора верной стратегии их развития. Мы надеемся что то что мы создали пригодится Вам и возможно Вы поможете нам развиваться и совершенствоваться вместе с Вами.

Статистика форума

Темы
406.677
Сообщения
465.122
Пользователи
84.733
Новый пользователь
Gen2203

Приложения форума для iOS и Android


У ркн там нет власти ;)
Приватные разговоры
Помощь Пользователи
    Вы не присоединились ни к одной комнате.