За последнюю неделю опубликовано 42 новых материалов.
Инструкция новичку Путеводитель по форуму Прокси для Telegram Показать подсказки , это бомба!

Скачать Американские животные / American Animals (2018) BDRemux 1080p от селезень | iTunes бесплатно через торрент

  • Поучаствуй (в качестве покупателя) в любых пяти совместных покупках (кроме завершённых и "Моментальных") и получи группу "Новичок" навсегда -> ссылка на раздел
  • Получай до 480 рублей за каждого приглашенного пользователя!
    представляем Вам очередное расширение партнерской программы, подробности описаны тут -> ссылка
  • 90% материалов доступно к скачиванию после простой регистрации!
    Если же ты хочешь скачивать материалы без требования оставлять отзывы то получи группу "Новичок", 10 способов повышения описаны тут -> ссылка
  • К сожалению количество битых ссылок растет и мы уже не можем их оперативно восстанавливать поэтому просим помощи у каждого нашего пользователя.
    С сегодняшнего дня, за каждую восстановленную ссылку мы заплатим Вам.
    Подробнее тут -> ссылка
  • Перенесем твои заслуги с другого ресурса!
    Мы понимаем как сложно прокачивать аккаунты на форумах, вроде раскачал аккаунт, а тут появляется ресурс в 100 раз круче но тоже с системой прокачки и снова качать аккаунт...
    Предлагаем вам перенести Ваши заслуги на другом подобном ресурсе к нам.
    Подробности описаны тут -> ссылка
  • Вы можете получать по 2.5% с каждой покупки и продажи на маркете! Подробности в теме Партнёрская программа
Если Вы не хотите скачивать, Вы всегда можетепосмотретьонлайн, просто нажмите кнопку ниже :

Открыть плеер

Torrent_Bot

Торрент-Бот
Бот форума
4 Окт 2016
93
160
20


Информация о фильме
Название: Американские животные
Оригинальное название: American Animals
Год выхода: 2018
Жанр: Драма, криминал, реальные события
Режиссер: Барт Лэйтон
В ролях: Эван Питерс, Энн Дауд, Барри Кеоган, Блейк Дженнер, Удо Кир, Джаред Абрахамсон, Дрю Старки, Уэйн Дювалл, Лара Грайс, Гэри Басараба



О фильме: Основан на реальных событиях. История четырех молодых людей, которые предпринимают попытку совершить одно из самых дерзких ограблений в истории США - похитить одну из самых дорогих книг в мире - «Птицы Америки» Джона Джеймса Одюбона.

Страна: Великобритания, США
Студия: Film4, New Amsterdam Film Company, RAW
Продолжительность: 01:56:53
Перевод: Профессиональный многоголосый| iTunes

Качество: BDRemux 1080p
Видео: MPEG-4 AVC, 1920x1080, 35.2 Mbit/s, 23.976 fps
Звук:
Аудио #01: 48 kHz, AC3, 5.1, 384 Kbps | Профессиональный многоголосый | RUS |
Аудио #02: 48 kHz, DTS-HD MA, 5.1, 2416 Kbps | Оригинал | ENG |
Субтитры: Русские (Forced, full), английские



MI
General
Unique ID : 172313224942811072149072177075976266158 (0x81A251E9C24E1C1BE06612BED3B1E1AE)
Complete name : D:Video111American.Animals.2018.BDREMUX.1080p.seleZen.mkv
Format : Matroska
Format version : Version 4
File size : 31.0 GiB
Duration : 1 h 56 min
Overall bit rate mode : Variable
Overall bit rate : 38.0 Mb/s
Movie name : American Animals (2018) from селезень
Encoded date : UTC 2019-06-21 14:10:33
Writing application : mkvmerge v33.1.0 ('Primrose') 64-bit
Writing library : libebml v1.3.7 + libmatroska v1.5.0

Video
ID : 1
Format : AVC
Format/Info : Advanced Video Codec
Format profile : [email protected]
Format settings : CABAC / 4 Ref Frames
Format settings, CABAC : Yes
Format settings, Reference : 4 frames
Codec ID : V_MPEG4/ISO/AVC
Duration : 1 h 56 min
Bit rate mode : Variable
Bit rate : 35.2 Mb/s
Maximum bit rate : 37.0 Mb/s
Width : 1 920 pixels
Height : 1 080 pixels
Display aspect ratio : 16:9
Frame rate mode : Constant
Frame rate : 23.976 (24000/1001) FPS
Color space : YUV
Chroma subsampling : 4:2:0
Bit depth : 8 bits
Scan type : Progressive
Bits/(Pixel*Frame) : 0.708
Stream size : 28.7 GiB (93%)
Language : English
Default : Yes
Forced : No

Audio #1
ID : 2
Format : AC-3
Format/Info : Audio Coding 3
Commercial name : Dolby Digital
Codec ID : A_AC3
Duration : 1 h 56 min
Bit rate mode : Constant
Bit rate : 384 kb/s
Channel(s) : 6 channels
Channel layout : L R C LFE Ls Rs
Sampling rate : 48.0 kHz
Frame rate : 31.250 FPS (1536 SPF)
Bit depth : 16 bits
Compression mode : Lossy
Stream size : 321 MiB (1%)
Title : iTunes
Language : Russian
Service kind : Complete Main
Default : Yes
Forced : Yes

Audio #2
ID : 3
Format : DTS XLL
Format/Info : Digital Theater Systems
Commercial name : DTS-HD Master Audio
Codec ID : A_DTS
Duration : 1 h 56 min
Bit rate mode : Variable
Bit rate : 2 416 kb/s
Channel(s) : 6 channels
Channel layout : C L R Ls Rs LFE
Sampling rate : 48.0 kHz
Frame rate : 93.750 FPS (512 SPF)
Bit depth : 24 bits
Compression mode : Lossless
Stream size : 1.97 GiB (6%)
Title : Original
Language : English
Default : No
Forced : No

Text #1
ID : 4
Format : UTF-8
Codec ID : S_TEXT/UTF8
Codec ID/Info : UTF-8 Plain Text
Duration : 1 h 51 min
Bit rate : 3 b/s
Count of elements : 35
Stream size : 2.50 KiB (0%)
Title : Forced
Language : Russian
Default : Yes
Forced : Yes

Text #2
ID : 5
Format : UTF-8
Codec ID : S_TEXT/UTF8
Codec ID/Info : UTF-8 Plain Text
Duration : 1 h 51 min
Bit rate : 90 b/s
Count of elements : 1412
Stream size : 73.8 KiB (0%)
Title : Full
Language : Russian
Default : No
Forced : No

Text #3
ID : 6
Format : UTF-8
Codec ID : S_TEXT/UTF8
Codec ID/Info : UTF-8 Plain Text
Duration : 1 h 56 min
Bit rate : 88 b/s
Count of elements : 1660
Stream size : 75.7 KiB (0%)
Title : SDH
Language : English
Default : No
Forced : No

Menu
00:00:00.000 : en:Chapter 1
00:06:57.584 : en:Chapter 2
00:14:58.856 : en:Chapter 3
00:21:21.947 : en:Chapter 4
00:27:23.809 : en:Chapter 5
00:36:22.806 : en:Chapter 6
00:41:42.124 : en:Chapter 7
00:48:53.305 : en:Chapter 8
00:54:59.296 : en:Chapter 9
01:04:23.067 : en:Chapter 10
01:11:11.767 : en:Chapter 11
01:16:28.375 : en:Chapter 12
01:24:47.707 : en:Chapter 13
01:30:18.997 : en:Chapter 14
01:37:15.788 : en:Chapter 15
01:45:36.455 : en:Chapter 16

Релиз:

 

Вложения

  • 39,7 KB Просмотры: 1
    Личеров 0
    Сидеров 0
    Файлов 1
    Объем 31 GB

Привет!

Мы группа людей которые решили помочь другим в решении их проблем, а так же пользователям с поиском самых свежих и качественных инфопродуктов. За 4 с небольшим месяца мы создали этот форум на который заходят ежедневно тысячи человек и посещаемость постоянно растёт. Мы создали панель лицензирования для защиты PHP скриптов от воровства и SEO панель для мониторинга наших сайтов и выбора верной стратегии их развития. Мы надеемся что то что мы создали пригодится Вам и возможно Вы поможете нам развиваться и совершенствоваться вместе с Вами.

Статистика форума

Темы
406.632
Сообщения
465.101
Пользователи
84.551
Новый пользователь
RimmaLi

Приложения форума для iOS и Android


У ркн там нет власти ;)
Приватные разговоры
Помощь Пользователи
    Вы не присоединились ни к одной комнате.