За последнюю неделю опубликовано 29 новых материалов.
Инструкция новичку Путеводитель по форуму Прокси для Telegram Показать подсказки , это бомба!

Скачать Американские жиголо / Cougars, Inc. (2011) BDRip 1080p | P бесплатно через торрент

  • Поучаствуй (в качестве покупателя) в любых пяти совместных покупках (кроме завершённых и "Моментальных") и получи группу "Новичок" навсегда -> ссылка на раздел
  • Получай до 480 рублей за каждого приглашенного пользователя!
    представляем Вам очередное расширение партнерской программы, подробности описаны тут -> ссылка
  • 90% материалов доступно к скачиванию после простой регистрации!
    Если же ты хочешь скачивать материалы без требования оставлять отзывы то получи группу "Новичок", 10 способов повышения описаны тут -> ссылка
  • К сожалению количество битых ссылок растет и мы уже не можем их оперативно восстанавливать поэтому просим помощи у каждого нашего пользователя.
    С сегодняшнего дня, за каждую восстановленную ссылку мы заплатим Вам.
    Подробнее тут -> ссылка
  • Перенесем твои заслуги с другого ресурса!
    Мы понимаем как сложно прокачивать аккаунты на форумах, вроде раскачал аккаунт, а тут появляется ресурс в 100 раз круче но тоже с системой прокачки и снова качать аккаунт...
    Предлагаем вам перенести Ваши заслуги на другом подобном ресурсе к нам.
    Подробности описаны тут -> ссылка
  • Вы можете получать по 2.5% с каждой покупки и продажи на маркете! Подробности в теме Партнёрская программа
Если Вы не хотите скачивать, Вы всегда можетепосмотретьонлайн, просто нажмите кнопку ниже :

Открыть плеер

Torrent_Bot

Торрент-Бот
Бот форума
4 Окт 2016
96
155
20
Информация о фильме
Название: Американские жиголо
Оригинальное название: Cougars, Inc.
Год выхода: 2011
Жанр: драма, комедия
Режиссер: К. Эшер Левин
В ролях: Кайл Галлнер, Сара Хайланд, Джеймс Белуши, Маив Куинлэн, Джей Брайан Уинник, Роберт Белуши, Райан Пинкстон, Кристиан Эдвард Мерфи, Дэнис Ричардс, Кэтрин Моррис, Ребекка Мэдер, Каталина Родригез, Ребекка Чейни, Ди Вилер, Крис Вилер, Дэйв Абрамс, Тимоти Дархэм, Челси Рот

О фильме:
Сэм был выгнан из всех школ по всей стране. Когда он узнаёт, что его мать больше не может позволить себе обучать его в школе, он и его друзья начинают своё собственное эскорт обслуживание, Корпорация Пум, чтобы помочь заплатить за его обучение. В этой новой весёлой работе Сэм и его друзья изучают поколение Пум, которые отчаянно пытаются остаться молодыми и каждый урок, который им преподают им нравиться всё больше.



Страна: США
Студия: Lookout Films, StoneBrook Entertainment
Продолжительность: 01:22:04
Перевод: Профессиональный многоголосый | Лицензия R5

Файл
Кодек: x.264
Качество: BDRip 1080p | Cougars.Inc.aka.Mothers.Little.Helpers.2011.1080p.BluRay.x264-BRMP
Видео: MPEG-4 AVC, 1920x816, 12.3 Mбит/с, 23.976 кадр/с
Аудио #1: Русский ( АС3, 6ch, 384 Кбит/с, 48.0 KHz) Профессиональный (многоголосый, закадровый) Лицензия R5
Аудио #2: Английский ( АС3, 6ch, 384 Кбит/с, 48.0 KHz)
Субтитры: нет
MediaInfo
Источник: Cougars.Inc.aka.Mothers.Little.Helpers.2011.1080p.BluRay.x264-BRMP
General
Unique ID : 240039078164596864289154510142739695229 (0xB495D847D45752FF887F65EC4415C67D)
Complete name : Cougars.Inc.2011.BDRip.1080p.mkv
Format : Matroska
Format version : Version 4 / Version 2
File size : 7.49 GiB
Duration : 1 h 22 min
Overall bit rate : 13.1 Mb/s
Encoded date : UTC 2018-09-16 07:47:03
Writing application : mkvmerge v7.1.0 ('Good Love') 64bit built on Jul 27 2014 13:06:55
Writing library : libebml v1.3.0 + libmatroska v1.4.1

Video
ID : 1
Format : AVC
Format/Info : Advanced Video Codec
Format profile : [email protected]
Format settings : CABAC / 5 Ref Frames
Format settings, CABAC : Yes
Format settings, ReFrames : 5 frames
Codec ID : V_MPEG4/ISO/AVC
Duration : 1 h 22 min
Bit rate : 12.3 Mb/s
Width : 1 920 pixels
Height : 816 pixels
Display aspect ratio : 2.35:1
Frame rate mode : Constant
Frame rate : 23.976 FPS
Color space : YUV
Chroma subsampling : 4:2:0
Bit depth : 8 bits
Scan type : Progressive
Bits/(Pixel*Frame) : 0.328
Stream size : 7.05 GiB (94%)
Writing library : x264 core 114 r1924 08d04a4
Encoding settings : cabac=1 / ref=5 / deblock=1:0:0 / analyse=0x3:0x133 / me=umh / subme=7 / psy=1 / psy_rd=1.00:0.00 / mixed_ref=1 / me_range=16 / chroma_me=1 / trellis=1 / 8x8dct=1 / cqm=0 / deadzone=21,11 / fast_pskip=0 / chroma_qp_offset=-2 / threads=12 / sliced_threads=0 / nr=0 / decimate=1 / interlaced=0 / constrained_intra=0 / bframes=3 / b_pyramid=2 / b_adapt=1 / b_bias=0 / direct=1 / weightb=1 / open_gop=0 / weightp=2 / keyint=250 / keyint_min=23 / scenecut=40 / intra_refresh=0 / rc_lookahead=40 / rc=2pass / mbtree=1 / bitrate=12338 / ratetol=1.0 / qcomp=0.60 / qpmin=0 / qpmax=69 / qpstep=4 / cplxblur=20.0 / qblur=0.5 / ip_ratio=1.40 / aq=1:1.00
Language : English
Default : Yes
Forced : No

Audio #1
ID : 2
Format : AC-3
Format/Info : Audio Coding 3
Commercial name : Dolby Digital
Codec ID : A_AC3
Duration : 1 h 22 min
Bit rate mode : Constant
Bit rate : 384 kb/s
Channel(s) : 6 channels
Channel layout : L R C LFE Ls Rs
Sampling rate : 48.0 kHz
Frame rate : 31.250 FPS (1536 SPF)
Bit depth : 16 bits
Compression mode : Lossy
Stream size : 225 MiB (3%)
Language : Russian
Service kind : Complete Main
Default : Yes
Forced : No

Audio #2
ID : 3
Format : AC-3
Format/Info : Audio Coding 3
Commercial name : Dolby Digital
Codec ID : A_AC3
Duration : 1 h 22 min
Bit rate mode : Constant
Bit rate : 384 kb/s
Channel(s) : 6 channels
Channel layout : L R C LFE Ls Rs
Sampling rate : 48.0 kHz
Frame rate : 31.250 FPS (1536 SPF)
Bit depth : 16 bits
Compression mode : Lossy
Stream size : 225 MiB (3%)
Language : English
Service kind : Complete Main
Default : No
Forced : No

Menu
00:00:00.000 : en:1
00:05:34.000 : en:2
00:15:10.000 : en:3
00:24:42.000 : en:4
00:34:48.000 : en:5
00:44:05.000 : en:6
00:57:49.000 : en:7
01:07:57.000 : en:8
01:19:06.000 : en:9
01:29:41.000 : en:10
Скриншоты
 

Вложения

  • 19,6 KB Просмотры: 1
    Личеров 0
    Сидеров 0
    Файлов 1
    Объем 7,5 GB

Привет!

Мы группа людей которые решили помочь другим в решении их проблем, а так же пользователям с поиском самых свежих и качественных инфопродуктов. За 4 с небольшим месяца мы создали этот форум на который заходят ежедневно тысячи человек и посещаемость постоянно растёт. Мы создали панель лицензирования для защиты PHP скриптов от воровства и SEO панель для мониторинга наших сайтов и выбора верной стратегии их развития. Мы надеемся что то что мы создали пригодится Вам и возможно Вы поможете нам развиваться и совершенствоваться вместе с Вами.

Статистика форума

Темы
406.518
Сообщения
464.549
Пользователи
82.836
Новый пользователь
Qwertyuio

Приложения форума для iOS и Android


У ркн там нет власти ;)
Приватные разговоры
Помощь Пользователи
    Вы не присоединились ни к одной комнате.