За последнюю неделю опубликовано 52 новых материалов.
Инструкция новичку Путеводитель по форуму Прокси для Telegram Показать подсказки , это бомба!

Скачать Алхимики (2000) DVB от AND03AND бесплатно через торрент

  • Поучаствуй (в качестве покупателя) в любых пяти совместных покупках (кроме завершённых и "Моментальных") и получи группу "Новичок" навсегда -> ссылка на раздел
  • Получай до 480 рублей за каждого приглашенного пользователя!
    представляем Вам очередное расширение партнерской программы, подробности описаны тут -> ссылка
  • 90% материалов доступно к скачиванию после простой регистрации!
    Если же ты хочешь скачивать материалы без требования оставлять отзывы то получи группу "Новичок", 10 способов повышения описаны тут -> ссылка
  • К сожалению количество битых ссылок растет и мы уже не можем их оперативно восстанавливать поэтому просим помощи у каждого нашего пользователя.
    С сегодняшнего дня, за каждую восстановленную ссылку мы заплатим Вам.
    Подробнее тут -> ссылка
  • Перенесем твои заслуги с другого ресурса!
    Мы понимаем как сложно прокачивать аккаунты на форумах, вроде раскачал аккаунт, а тут появляется ресурс в 100 раз круче но тоже с системой прокачки и снова качать аккаунт...
    Предлагаем вам перенести Ваши заслуги на другом подобном ресурсе к нам.
    Подробности описаны тут -> ссылка
  • Вы можете получать по 2.5% с каждой покупки и продажи на маркете! Подробности в теме Партнёрская программа
Если Вы не хотите скачивать, Вы всегда можетепосмотретьонлайн, просто нажмите кнопку ниже :

Открыть плеер

Torrent_Bot

Торрент-Бот
Бот форума
4 Окт 2016
91
163
20
Информация о фильме
Название: Алхимики
Год выхода: 2000
Жанр: комедия
Режиссер: Дмитрий Астрахан
В ролях: Юрий Стоянов, Илья Олейников, Анна Легчилова, Семён Фурман, Виктор Сухоруков, Владимир Лелётко, Виктор Лебедев, Алексей Шевченков, Ольга Нефедова, Владимир Корпусь, Наталья Чемодурова, Дмитрий Астрахан, Николай Кириченко, Анжела Кораблева, Анастасия Дробыш, Нина Розанцева

О фильме:
Когда происходит эта история, сказать трудно, поскольку на планете Земля `распалась связь времен`, перемешались эпохи... Сэр Лавуит (Виктор Лебедев), типичный ученый-отшельник, покидает Столицу и уезжает к коллеге в другой город. В доме остается хозяйничать развеселая троица слуг: горничная Дол (Анна Легчилова), лакей Фейс (Илья Олейников) и дворецкий Сатл (Юрий Стоянов). Втроем они дружно строят планы, как использовать дом хозяина для обогащения. Внезапно Сатлу приходит в голову выдающаяся идея - заделаться `алхимиками` и разбогатеть, дурача доверчивых горожан, причем разбогатеть БЕЗУМНО-О-О-О!!!



Сценарист: Олег Данилов
Оператор: Андрей Чертов
Композитор: Алексей Григорьев
Художник: Игорь Щёлоков
Продюсеры: Владимир Храпунов, Александр Васильков, Ольга Шиманская (иcп.), Владимир Ястреба (иcп.)
Производство: Беларусьфильм, Киностудия "Мавр", Болгарский Национальный Киноцентр, Фирма "Вяст"

Благодарность: За оказанную помощь с недостающим материалом Bartimeyse.
За что ему большое спасибо!
Запись потока *.ts с наземного цифрового телеканала "Беларусь 3", ремукс в *.mkv программой VideoReDo.
В конце фильма присутствуют 2 анонса, видны на скринах.

Страна: Россия, Республика Беларусь, Болгария
Продолжительность: 01:40:29
Перевод: не требует

Файл
Кодек: AVC (H264)
Качество: DVB
Видео: AVC (H264), 720x576 (4:3), 25 fps, 2 187 Kbps
Звук: MP2, 256 kbps, 2 channels, 48 kHz

Семпл

MediaInfo
General
Unique ID : 78393683706045950796792623388529751960 (0x3AFA1304ABDF64F12854909A37AB7798)
Complete name : D:Новая земля 2Художественные фильмыАлхимики (2000)Алхимики (2000).mkv
Format : Matroska
Format version : Version 2
File size : 1.75 GiB
Duration : 1h 40mn
Overall bit rate : 2 493 Kbps
Writing application : Lavf52.64.2
Writing library : Lavf52.64.2

Video
ID : 1
Format : AVC
Format/Info : Advanced Video Codec
Format profile : [email protected]
Format settings, CABAC : Yes
Format settings, ReFrames : 4 frames
Format settings, GOP : M=4, N=24
Codec ID : V_MPEG4/ISO/AVC
Duration : 1h 40mn
Bit rate : 2 187 Kbps
Width : 720 pixels
Height : 576 pixels
Display aspect ratio : 4:3
Original display aspect ratio : 4:3
Frame rate mode : Constant
Frame rate : 25.000 fps
Standard : PAL
Color space : YUV
Chroma subsampling : 4:2:0
Bit depth : 8 bits
Scan type : MBAFF
Scan order : Top Field First
Bits/(Pixel*Frame) : 0.211
Stream size : 1.54 GiB (88%)
Default : Yes
Forced : No
Color primaries : BT.601 PAL
Transfer characteristics : BT.470 System B, BT.470 System G
Matrix coefficients : BT.601
Color range : Limited

Audio
ID : 2
Format : MPEG Audio
Format version : Version 1
Format profile : Layer 2
Codec ID : A_MPEG/L2
Codec ID/Hint : MP2
Duration : 1h 40mn
Bit rate mode : Constant
Bit rate : 256 Kbps
Channel(s) : 2 channels
Sampling rate : 48.0 KHz
Compression mode : Lossy
Stream size : 184 MiB (10%)
Language : English
Default : Yes
Forced : No

Скриншоты
 

Вложения

  • 19,7 KB Просмотры: 0
    Личеров 0
    Сидеров 0
    Файлов 1
    Объем 1,7 GB

Привет!

Мы группа людей которые решили помочь другим в решении их проблем, а так же пользователям с поиском самых свежих и качественных инфопродуктов. За 4 с небольшим месяца мы создали этот форум на который заходят ежедневно тысячи человек и посещаемость постоянно растёт. Мы создали панель лицензирования для защиты PHP скриптов от воровства и SEO панель для мониторинга наших сайтов и выбора верной стратегии их развития. Мы надеемся что то что мы создали пригодится Вам и возможно Вы поможете нам развиваться и совершенствоваться вместе с Вами.

Статистика форума

Темы
410.533
Сообщения
469.089
Пользователи
86.010
Новый пользователь
Mirzo21

Приложения форума для iOS и Android


У ркн там нет власти ;)
Приватные разговоры
Помощь Пользователи
    Вы не присоединились ни к одной комнате.