За последнюю неделю опубликовано 64 новых материалов.
Инструкция новичку Путеводитель по форуму Прокси для Telegram Показать подсказки , это бомба!

Скачать Александр. Невская битва (2008) BDRip 1080p бесплатно через торрент

  • Поучаствуй (в качестве покупателя) в любых пяти совместных покупках (кроме завершённых и "Моментальных") и получи группу "Новичок" навсегда -> ссылка на раздел
  • Получай до 480 рублей за каждого приглашенного пользователя!
    представляем Вам очередное расширение партнерской программы, подробности описаны тут -> ссылка
  • 90% материалов доступно к скачиванию после простой регистрации!
    Если же ты хочешь скачивать материалы без требования оставлять отзывы то получи группу "Новичок", 10 способов повышения описаны тут -> ссылка
  • К сожалению количество битых ссылок растет и мы уже не можем их оперативно восстанавливать поэтому просим помощи у каждого нашего пользователя.
    С сегодняшнего дня, за каждую восстановленную ссылку мы заплатим Вам.
    Подробнее тут -> ссылка
  • Перенесем твои заслуги с другого ресурса!
    Мы понимаем как сложно прокачивать аккаунты на форумах, вроде раскачал аккаунт, а тут появляется ресурс в 100 раз круче но тоже с системой прокачки и снова качать аккаунт...
    Предлагаем вам перенести Ваши заслуги на другом подобном ресурсе к нам.
    Подробности описаны тут -> ссылка
  • Вы можете получать по 2.5% с каждой покупки и продажи на маркете! Подробности в теме Партнёрская программа
Если Вы не хотите скачивать, Вы всегда можетепосмотретьонлайн, просто нажмите кнопку ниже :

Открыть плеер

Torrent_Bot

Торрент-Бот
Бот форума
4 Окт 2016
92
160
20


Информация о фильме
Название: Александр. Невская битва
Год выхода: 2008
Жанр: Драма, военный, биография, история
Режиссер: Игорь Каленов
В ролях: Антон Пампушный, Игорь Ботвин, Сергей Лысов, Александр Орлов, Дмитрий Быковский-Ромашов, Александр Быковский, Артём Осипов, Светлана Бакулина, Сергей Гамов, Егор Бакулин

О фильме:
Первая половина 13 века. Новгородский князь Александр любим народом, но имеет и многих противников. Огромная армия Батыя угрожает нашествием с юга. Шведские рыцари замышляют крестовый поход на Русь, они засылают в Новгород шпиона. Боярская оппозиция готовит покушение на Александра, вынашивает предательский план сдачи города. В довершение ко всему, лучший друг князя Ратмир проникся страстью к красавице-княжне и теперь может стать для Александра опасным врагом. Князь молод, но жизнь требует от него воинской доблести, дальновидности дипломата и глубокой житейской мудрости.



Страна: Россия
Студия: Никола Фильм
Продолжительность: 01:55:27
Перевод: Не требуется

Файл
Качество: BDRip 1080p
Исходник: Александр. Невская битва (2008) Blu-Ray
Формат: MKV
Кодек: MPEG-4 AVC
Видео: 1920x818 (2,35:1), 23,976 fps, MPEG-4 AVC, 12,9 Мbps avg, 0.342 bit/pixel
Аудио: DTS, 48 kHz, 6 ch, ~768.00 kbps avg | русский | Blu-ray RUS
Аудио: AC3, 48 kHz, 6 ch, ~448.00 kbps avg | русский | Blu-ray RUS
Субтитры: Отсутствуют


Инфо-файл
Общее
Уникальный идентификатор : 263954127061767910988711454105835175662 (0xC693B739C5B4E12BD88EA8D72DFC7EEE)
Полное имя : Alexsandr.Nevskya.Bitva2008.1080p.BluRay.DTS.x264.mkv
Формат : Matroska
Версия формата : Version 4
Размер файла : 11,4 Гбайт
Продолжительность : 1 ч. 55 м.
Общий поток : 14,1 Мбит/сек
Название фильма : Александр. Невская битва (2008)
Дата кодирования : UTC 2020-06-06 18:17:00
Программа кодирования : mkvmerge v47.0.0 ('Black Flag') 64-bit
Библиотека кодирования : libebml v1.3.10 + libmatroska v1.5.2
Обложка : Yes
Attachments : cover.jpg

Видео
Идентификатор : 1
Формат : AVC
Формат/Информация : Advanced Video Codec
Профиль формата : [email protected]
Настройки формата : CABAC / 5 Ref Frames
Параметр CABAC формата : Да
Параметр RefFrames формата : 5 кадров
Идентификатор кодека : V_MPEG4/ISO/AVC
Продолжительность : 1 ч. 55 м.
Битрейт : 12,9 Мбит/сек
Ширина : 1 920 пикселей
Высота : 818 пикселей
Соотношение сторон : 2,35:1
Режим частоты кадров : Постоянный
Частота кадров : 23,976 (24000/1001) кадра/сек
Цветовое пространство : YUV
Субдискретизация насыщенности : 4:2:0
Битовая глубина : 8 бит
Тип развёртки : Прогрессивная
Бит/(Пиксели*Кадры) : 0.342
Размер потока : 10,4 Гбайт (91%)
Заголовок : #stillet
Библиотека кодирования : x264 core 152 r2851bm ba24899
Настройки программы : cabac=1 / ref=5 / deblock=1:-3:-3 / analyse=0x3:0x113 / me=umh / subme=11 / psy=1 / psy_rd=1.00:0.15 / mixed_ref=1 / me_range=32 / chroma_me=1 / trellis=2 / 8x8dct=1 / cqm=0 / deadzone=21,11 / fast_pskip=0 / chroma_qp_offset=-3 / threads=8 / lookahead_threads=3 / sliced_threads=0 / nr=0 / decimate=0 / interlaced=0 / bluray_compat=0 / constrained_intra=0 / bframes=9 / b_pyramid=2 / b_adapt=2 / b_bias=0 / direct=3 / weightb=1 / open_gop=0 / weightp=2 / keyint=240 / keyint_min=23 / scenecut=40 / intra_refresh=0 / rc_lookahead=40 / rc=2pass / mbtree=0 / bitrate=12876 / ratetol=1.0 / qcomp=0.60 / qpmin=0 / qpmax=69 / qpstep=4 / cplxblur=20.0 / qblur=0.5 / vbv_maxrate=50000 / vbv_bufsize=62500 / nal_hrd=none / filler=0 / ip_ratio=1.40 / pb_ratio=1.30 / aq=1:1.00
Язык : English
Default : Да
Forced : Нет

Аудио #1
Идентификатор : 2
Формат : DTS
Формат/Информация : Digital Theater Systems
Идентификатор кодека : A_DTS
Продолжительность : 1 ч. 55 м.
Вид битрейта : Постоянный
Битрейт : 768 Кбит/сек
Каналы : 6 каналов
Channel layout : C L R Ls Rs LFE
Частота : 48,0 КГц
Частота кадров : 93,750 кадра/сек (512 SPF)
Битовая глубина : 24 бит
Метод сжатия : С потерями
Размер потока : 623 Мбайт (5%)
Заголовок : Blu-ray RUS
Язык : Russian
Default : Да
Forced : Да

Аудио #2
Идентификатор : 3
Формат : AC-3
Формат/Информация : Audio Coding 3
Коммерческое название : Dolby Digital
Идентификатор кодека : A_AC3
Продолжительность : 1 ч. 55 м.
Вид битрейта : Постоянный
Битрейт : 448 Кбит/сек
Каналы : 6 каналов
Channel layout : L R C LFE Ls Rs
Частота : 48,0 КГц
Частота кадров : 31,250 кадров/сек (1536 SPF)
Метод сжатия : С потерями
Размер потока : 370 Мбайт (3%)
Заголовок : Blu-ray RUS
Язык : Russian
Default : Нет
Forced : Нет

Меню
00:07:15.184 : ru:Глава 01
00:16:46.964 : :Глава 02
00:24:20.875 : :Глава 03
00:32:23.357 : :Глава 04
00:40:05.527 : :Глава 05
00:47:17.960 : :Глава 06
00:57:10.969 : :Глава 07
01:01:42.699 : :Глава 08
01:08:25.518 : :Глава 09
01:15:23.519 : :Глава 10
01:20:35.831 : :Глава 11
01:27:58.273 : :Глава 12
01:35:03.698 : :Глава 13
01:39:13.948 : :Глава 14
01:48:32.922 : :Глава 15
01:55:26.668 : :Глава 16
Скриншоты
 

Вложения

  • 29,4 KB Просмотры: 0
    Личеров 0
    Сидеров 0
    Файлов 1
    Объем 11,4 GB

Привет!

Мы группа людей которые решили помочь другим в решении их проблем, а так же пользователям с поиском самых свежих и качественных инфопродуктов. За 4 с небольшим месяца мы создали этот форум на который заходят ежедневно тысячи человек и посещаемость постоянно растёт. Мы создали панель лицензирования для защиты PHP скриптов от воровства и SEO панель для мониторинга наших сайтов и выбора верной стратегии их развития. Мы надеемся что то что мы создали пригодится Вам и возможно Вы поможете нам развиваться и совершенствоваться вместе с Вами.

Статистика форума

Темы
406.657
Сообщения
465.101
Пользователи
84.679
Новый пользователь
Cheza

Приложения форума для iOS и Android


У ркн там нет власти ;)
Приватные разговоры
Помощь Пользователи
    Вы не присоединились ни к одной комнате.