За последнюю неделю опубликовано 47 новых материалов.
Инструкция новичку Путеводитель по форуму Прокси для Telegram Показать подсказки , это бомба!

Скачать Александр / Alexander (2004) WEB-DLRip-AVC | D | Theatrical Cut | Open Matte бесплатно через торрент

  • Поучаствуй (в качестве покупателя) в любых пяти совместных покупках (кроме завершённых и "Моментальных") и получи группу "Новичок" навсегда -> ссылка на раздел
  • Получай до 480 рублей за каждого приглашенного пользователя!
    представляем Вам очередное расширение партнерской программы, подробности описаны тут -> ссылка
  • 90% материалов доступно к скачиванию после простой регистрации!
    Если же ты хочешь скачивать материалы без требования оставлять отзывы то получи группу "Новичок", 10 способов повышения описаны тут -> ссылка
  • К сожалению количество битых ссылок растет и мы уже не можем их оперативно восстанавливать поэтому просим помощи у каждого нашего пользователя.
    С сегодняшнего дня, за каждую восстановленную ссылку мы заплатим Вам.
    Подробнее тут -> ссылка
  • Перенесем твои заслуги с другого ресурса!
    Мы понимаем как сложно прокачивать аккаунты на форумах, вроде раскачал аккаунт, а тут появляется ресурс в 100 раз круче но тоже с системой прокачки и снова качать аккаунт...
    Предлагаем вам перенести Ваши заслуги на другом подобном ресурсе к нам.
    Подробности описаны тут -> ссылка
  • Вы можете получать по 2.5% с каждой покупки и продажи на маркете! Подробности в теме Партнёрская программа
Если Вы не хотите скачивать, Вы всегда можетепосмотретьонлайн, просто нажмите кнопку ниже :

Открыть плеер

Torrent_Bot

Торрент-Бот
Бот форума
4 Окт 2016
93
160
20



Информация о фильме
Название: Александр
Оригинальное название: Alexander
Год выхода: 2004
Жанр: боевик, драма, мелодрама, приключения, военный, биография, история
Режиссер: Оливер Стоун
В ролях: Колин Фаррелл, Анджелина Джоли, Вэл Килмер, Энтони Хопкинс, Джаред Лето, Розарио Доусон, Джонатан Риз Майерс, Кристофер Пламмер, Дэвид Беделла, Джесси Камм

О фильме:
Спустя 40 лет после гибели Александра пожилой Птолемей, один из ближайших соратников Македонского, ставший после его смерти наместником Египта, решает рассказать и записать историю побед великого полководца. В течение восьми лет войско Александра Великого двигалось на Восток, к берегам мирового Океана.
Покорив Западную и Центральную Азию, Македонский первым ступил на загадочную и таинственную землю древней Индии. Об этом он мечтал ещё в детстве, слушая мифы о Трое, подвигах Геракла и Ахиллеса…



Рейтинг MPAA: R - лицам до 17 лет обязательно присутствие взрослого

Страна: США, Великобритания, Германия, Нидерланды, Франция, Италия, Марокко, Таиланд
Студия: Warner Bros., Intermedia Films, Pacifica Film
Продолжительность: 02:55:39
Перевод: Профессиональный (полное дублирование)

Файл
Формат: MKV
Качество: WEB-DLRip-AVC (исх. WEB-DL 1080p | Amazon)
Видео: AVC, 736x414 (16:9) at 23.976 fps, 1108 kbps
Аудио: AAC LC SBR, 48.0 KHz, 2 ch, 80 kbps
Субтитры: Русские, Английские

MediaInfo
General
Unique ID : 247582776184152485513100888050083692835 (0xBA42B54F0112679BB06D3B232FD60123)
Complete name : Alexander.2004.Theatrical.Cut.Open.Matte.WEB-DLRip-AVC.mkv
Format : Matroska
Format version : Version 4
File size : 1.46 GiB
Duration : 2 h 55 min
Overall bit rate : 1 190 kb/s
Encoded date : UTC 2020-06-18 19:40:30
Writing application : mkvmerge v8.5.0 ('Vanishing Act') 32bit
Writing library : libebml v1.3.1 + libmatroska v1.4.2

Video
ID : 1
Format : AVC
Format/Info : Advanced Video Codec
Format profile : [email protected]
Format settings : CABAC / 14 Ref Frames
Format settings, CABAC : Yes
Format settings, RefFrames : 14 frames
Codec ID : V_MPEG4/ISO/AVC
Duration : 2 h 55 min
Bit rate : 1 108 kb/s
Width : 736 pixels
Height : 414 pixels
Display aspect ratio : 16:9
Frame rate mode : Constant
Frame rate : 23.976 (24000/1001) FPS
Color space : YUV
Chroma subsampling : 4:2:0
Bit depth : 8 bits
Scan type : Progressive
Bits/(Pixel*Frame) : 0.152
Stream size : 1.36 GiB (93%)
Title : Alexander [Open Matte]
Writing library : x264 core 152 r2851 ba24899
Encoding settings : cabac=1 / ref=14 / deblock=1:-2:-1 / analyse=0x3:0x113 / me=umh / subme=10 / psy=1 / psy_rd=0.95:0.15 / mixed_ref=1 / me_range=32 / chroma_me=1 / trellis=2 / 8x8dct=1 / cqm=0 / deadzone=21,11 / fast_pskip=0 / chroma_qp_offset=-3 / threads=6 / lookahead_threads=1 / sliced_threads=0 / nr=0 / decimate=0 / interlaced=0 / bluray_compat=0 / constrained_intra=0 / bframes=13 / b_pyramid=2 / b_adapt=2 / b_bias=0 / direct=3 / weightb=1 / open_gop=0 / weightp=2 / keyint=250 / keyint_min=23 / scenecut=40 / intra_refresh=0 / rc=2pass / mbtree=0 / bitrate=1108 / ratetol=1.0 / qcomp=0.80 / qpmin=0 / qpmax=69 / qpstep=4 / cplxblur=20.0 / qblur=0.5 / ip_ratio=1.25 / pb_ratio=1.30 / aq=2:0.80
Language : English
Default : Yes
Forced : No

Audio
ID : 2
Format : AAC LC SBR
Format/Info : Advanced Audio Codec Low Complexity with Spectral Band Replication
Commercial name : HE-AAC
Format settings : Explicit
Codec ID : A_AAC-2
Duration : 2 h 55 min
Bit rate : 80.0 kb/s
Channel(s) : 2 channels
Channel layout : L R
Sampling rate : 48.0 kHz
Frame rate : 23.438 FPS (2048 SPF)
Compression mode : Lossy
Stream size : 100 MiB (7%)
Title : DUB
Language : Russian
Default : Yes
Forced : No

Text #1
ID : 3
Format : UTF-8
Codec ID : S_TEXT/UTF8
Codec ID/Info : UTF-8 Plain Text
Duration : 2 h 45 min
Bit rate : 101 b/s
Count of elements : 1829
Stream size : 123 KiB (0%)
Language : Russian
Default : No
Forced : No

Text #2
ID : 4
Format : UTF-8
Codec ID : S_TEXT/UTF8
Codec ID/Info : UTF-8 Plain Text
Duration : 2 h 44 min
Bit rate : 51 b/s
Count of elements : 1703
Stream size : 62.0 KiB (0%)
Language : English
Default : No
Forced : No
Скриншоты
 

Вложения

  • 30,2 KB Просмотры: 0
    Личеров 0
    Сидеров 0
    Файлов 1
    Объем 1,5 GB

Привет!

Мы группа людей которые решили помочь другим в решении их проблем, а так же пользователям с поиском самых свежих и качественных инфопродуктов. За 4 с небольшим месяца мы создали этот форум на который заходят ежедневно тысячи человек и посещаемость постоянно растёт. Мы создали панель лицензирования для защиты PHP скриптов от воровства и SEO панель для мониторинга наших сайтов и выбора верной стратегии их развития. Мы надеемся что то что мы создали пригодится Вам и возможно Вы поможете нам развиваться и совершенствоваться вместе с Вами.

Статистика форума

Темы
406.639
Сообщения
465.113
Пользователи
84.584
Новый пользователь
vax51371

Приложения форума для iOS и Android


У ркн там нет власти ;)
Приватные разговоры
Помощь Пользователи
    Вы не присоединились ни к одной комнате.