За последнюю неделю опубликовано 49 новых материалов.
Инструкция новичку Путеводитель по форуму Прокси для Telegram Показать подсказки , это бомба!

Скачать Alanis Morissette - Such Pretty Forks In The Road [24Bit Hi-Res] (2020) FLAC бесплатно через торрент

  • Поучаствуй (в качестве покупателя) в любых пяти совместных покупках (кроме завершённых и "Моментальных") и получи группу "Новичок" навсегда -> ссылка на раздел
  • Получай до 480 рублей за каждого приглашенного пользователя!
    представляем Вам очередное расширение партнерской программы, подробности описаны тут -> ссылка
  • 90% материалов доступно к скачиванию после простой регистрации!
    Если же ты хочешь скачивать материалы без требования оставлять отзывы то получи группу "Новичок", 10 способов повышения описаны тут -> ссылка
  • К сожалению количество битых ссылок растет и мы уже не можем их оперативно восстанавливать поэтому просим помощи у каждого нашего пользователя.
    С сегодняшнего дня, за каждую восстановленную ссылку мы заплатим Вам.
    Подробнее тут -> ссылка
  • Перенесем твои заслуги с другого ресурса!
    Мы понимаем как сложно прокачивать аккаунты на форумах, вроде раскачал аккаунт, а тут появляется ресурс в 100 раз круче но тоже с системой прокачки и снова качать аккаунт...
    Предлагаем вам перенести Ваши заслуги на другом подобном ресурсе к нам.
    Подробности описаны тут -> ссылка
  • Вы можете получать по 2.5% с каждой покупки и продажи на маркете! Подробности в теме Партнёрская программа

Torrent_Bot

Торрент-Бот
Бот форума
4 Окт 2016
93
160
20



Исполнитель: Alanis Morissette | Название: Such Pretty Forks In The Road
Страна: Canada/USA | Жанр: Alternative-Rock, Pop-Rock, Singer-Songwriter
Год: 2020 | Продолжительность: 00:45:57
Формат/Кодек: FLAC | Битрейт аудио: Lossless
Количество каналов: 2.0 | Разрядность: 24/96
Тип рипа: tracks



tracklist
1. Smiling (04:17)
2. Ablaze (03:57)
3. Reasons I Drink (03:36)
4. Diagnosis (04:46)
5. Missing the Miracle (03:33)
6. Losing the Plot (03:57)
7. Reckoning (03:25)
8. Sandbox Love (04:12)
9. Her (04:10)
10. Nemesis (05:56)
11. Pedestal (04:08)
DR
foobar2000 1.5 / Замер динамического диапазона (DR) 1.1.1
Дата отчёта: 2020-08-02 09:53:04

--------------------------------------------------------------------------------
Анализ: Alanis Morissette / Such Pretty Forks In The Road
--------------------------------------------------------------------------------

DR Пики RMS Продолжительность трека
--------------------------------------------------------------------------------
DR5 -0.99 дБ -8.53 дБ 4:17 01-Smiling
DR6 -0.50 дБ -9.25 дБ 3:58 02-Ablaze
DR5 -0.99 дБ -7.76 дБ 3:37 03-Reasons I Drink
DR7 -1.80 дБ -11.25 дБ 4:47 04-Diagnosis
DR4 -1.01 дБ -7.55 дБ 3:33 05-Missing The Miracle
DR5 -1.01 дБ -8.09 дБ 3:57 06-Losing The Plot
DR5 -0.99 дБ -8.41 дБ 3:25 07-Reckoning
DR5 -0.99 дБ -7.96 дБ 4:13 08-Sandbox Love
DR7 -0.99 дБ -9.62 дБ 4:10 09-Her
DR5 -0.99 дБ -8.21 дБ 5:56 10-Nemesis
DR6 -0.99 дБ -9.36 дБ 4:08 11-Pedestal
--------------------------------------------------------------------------------

Количество треков: 11
Реальные значения DR: DR6

Частота: 96000 Гц
Каналов: 2
Разрядность: 24
Битрейт: 2778 кбит/с
Кодек: FLAC
================================================================================
 

Вложения

  • 19,9 KB Просмотры: 0
    Личеров 0
    Сидеров 0
    Файлов 13
    Объем 940,4 MB

Привет!

Мы группа людей которые решили помочь другим в решении их проблем, а так же пользователям с поиском самых свежих и качественных инфопродуктов. За 4 с небольшим месяца мы создали этот форум на который заходят ежедневно тысячи человек и посещаемость постоянно растёт. Мы создали панель лицензирования для защиты PHP скриптов от воровства и SEO панель для мониторинга наших сайтов и выбора верной стратегии их развития. Мы надеемся что то что мы создали пригодится Вам и возможно Вы поможете нам развиваться и совершенствоваться вместе с Вами.

Статистика форума

Темы
406.640
Сообщения
465.116
Пользователи
84.570
Новый пользователь
Azari666

Приложения форума для iOS и Android


У ркн там нет власти ;)
Приватные разговоры
Помощь Пользователи
    Вы не присоединились ни к одной комнате.