За последнюю неделю опубликовано 82 новых материалов.
Инструкция новичку Путеводитель по форуму Прокси для Telegram Показать подсказки , это бомба!

Скачать Al Bano & Romina Power - Liberta! [клип] (2020) WEBRip 1080p бесплатно через торрент

  • Поучаствуй (в качестве покупателя) в любых пяти совместных покупках (кроме завершённых и "Моментальных") и получи группу "Новичок" навсегда -> ссылка на раздел
  • Получай до 480 рублей за каждого приглашенного пользователя!
    представляем Вам очередное расширение партнерской программы, подробности описаны тут -> ссылка
  • 90% материалов доступно к скачиванию после простой регистрации!
    Если же ты хочешь скачивать материалы без требования оставлять отзывы то получи группу "Новичок", 10 способов повышения описаны тут -> ссылка
  • К сожалению количество битых ссылок растет и мы уже не можем их оперативно восстанавливать поэтому просим помощи у каждого нашего пользователя.
    С сегодняшнего дня, за каждую восстановленную ссылку мы заплатим Вам.
    Подробнее тут -> ссылка
  • Перенесем твои заслуги с другого ресурса!
    Мы понимаем как сложно прокачивать аккаунты на форумах, вроде раскачал аккаунт, а тут появляется ресурс в 100 раз круче но тоже с системой прокачки и снова качать аккаунт...
    Предлагаем вам перенести Ваши заслуги на другом подобном ресурсе к нам.
    Подробности описаны тут -> ссылка
  • Вы можете получать по 2.5% с каждой покупки и продажи на маркете! Подробности в теме Партнёрская программа

Torrent_Bot

Торрент-Бот
Бот форума
4 Окт 2016
104
152
20



Название: Liberta!
Исполнитель: Al Bano & Romina Power
Год выхода клипа: 2020
Жанр: Pop
Страна: Италия

О клипе: Без рекламы, без логотипов.
Профессиональный клип от Dirty Seagulls, Nils Astrologo, Gianmarco Gabriele на песню Al Bano & Romina Power - Liberta! из альбома 1987 г.
Потрясающий «эффект присутствия». Рим мастерски снят с помощью дрона во время пандемии в апреле 2020 г.
Отсутствие людей на улицах и площадях напоминает Апокалипсис.
Знаменитая песня Liberta! в исполнении Al Bano & Romina Power звучит здесь как гимн, как напоминание о Великом Прошлом и призыв к Свободе.
За 4 минуты вы увидите в неожиданном ракурсе знаменитую Историю Италии, ожившую в камне:
La fontana di Trevi come non l'avete mai vista.
Piazza di Spagna deserta da una prospettiva impossibile.
Piazza Venezia Deserta.
Il volo del drone sul Pantheon.
Il volo attraverso piazza Navona.

Продолжительность: 00:04:20
Формат: MKV
Кодек: MPEG4/AVC
Качество: WEBRip 1080p
Видео: 7212 Кбит/с, 1920x1080, 30 fps
Звук 1: 256 Кбит/с, 44,1 КГц, 2 канала, AAC LC
Звук 2: 980 Кбит/с, 44,1 КГц, 2 канала, FLAC

MediaInfo
General
Complete name : Al Bano & Romina Power -- Liberta 1080p.mkv
Format : Matroska
Format version : Version 4
File size : 257 MiB
Duration : 4 min 20 s
Overall bit rate mode : Variable
Overall bit rate : 8 258 kb/s
Encoded date : UTC 2020-06-18 17:12:59
Writing application : mkvmerge v47.0.0 ('Black Flag') 32-bit
Writing library : libebml v1.3.10 + libmatroska v1.5.2

Video
ID : 1
Format : AVC
Format/Info : Advanced Video Codec
Format profile : Main@L4
Format settings : CABAC / 5 Ref Frames
Format settings, CABAC : Yes
Format settings, Reference frames : 5 frames
Codec ID : V_MPEG4/ISO/AVC
Duration : 4 min 13 s
Bit rate : 7 212 kb/s
Width : 1 920 pixels
Height : 1 080 pixels
Display aspect ratio : 16:9
Frame rate mode : Constant
Frame rate : 30.000 FPS
Color space : YUV
Chroma subsampling : 4:2:0
Bit depth : 8 bits
Scan type : Progressive
Bits/(Pixel*Frame) : 0.116
Stream size : 218 MiB (85%)
Title : Dirty Seagulls
Writing library : x264 core 157
Encoding settings : cabac=1 / ref=5 / deblock=1:0:0 / analyse=0x1:0x131 / me=umh / subme=10 / psy=0 / mixed_ref=1 / me_range=24 / chroma_me=1 / trellis=2 / 8x8dct=0 / cqm=0 / deadzone=21,11 / fast_pskip=1 / chroma_qp_offset=0 / threads=34 / lookahead_threads=5 / sliced_threads=0 / nr=0 / decimate=1 / interlaced=0 / bluray_compat=0 / constrained_intra=0 / bframes=8 / b_pyramid=2 / b_adapt=2 / b_bias=0 / direct=3 / weightb=1 / open_gop=0 / weightp=2 / keyint=50 / keyint_min=26 / scenecut=0 / intra_refresh=0 / rc_lookahead=50 / rc=crf / mbtree=1 / crf=23.0 / qcomp=0.60 / qpmin=0 / qpmax=69 / qpstep=4 / vbv_maxrate=16200 / vbv_bufsize=32400 / crf_max=0.0 / nal_hrd=none / filler=0 / ip_ratio=1.40 / aq=2:1.00
Language : Italian
Default : Yes
Forced : No
Color range : Limited
Color primaries : BT.709
Matrix coefficients : BT.709

Audio #1
ID : 2
Format : AAC LC
Format/Info : Advanced Audio Codec Low Complexity
Codec ID : A_AAC-2
Duration : 4 min 20 s
Bit rate : 256 kb/s
Channel(s) : 2 channels
Channel layout : L R
Sampling rate : 44.1 kHz
Frame rate : 43.066 FPS (1024 SPF)
Compression mode : Lossy
Delay relative to video : 22 ms
Stream size : 7.95 MiB (3%)
Title : AAC-LC-256CBR
Language : Italian
Default : Yes
Forced : No

Audio #2
ID : 3
Format : FLAC
Format/Info : Free Lossless Audio Codec
Codec ID : A_FLAC
Duration : 4 min 20 s
Bit rate mode : Variable
Bit rate : 980 kb/s
Channel(s) : 2 channels
Channel layout : L R
Sampling rate : 44.1 kHz
Frame rate : 10.770 FPS (4095 SPF)
Bit depth : 16 bits
Compression mode : Lossless
Stream size : 30.4 MiB (12%)
Title : FLAC-1000
Writing library : libFLAC 1.3.2 (UTC 2017-01-01)
Language : Italian
Default : No
Forced : No : No
Скриншоты
 

Вложения

  • 10,9 KB Просмотры: 0
    Личеров 0
    Сидеров 0
    Файлов 1
    Объем 256,6 MB

Привет!

Мы группа людей которые решили помочь другим в решении их проблем, а так же пользователям с поиском самых свежих и качественных инфопродуктов. За 4 с небольшим месяца мы создали этот форум на который заходят ежедневно тысячи человек и посещаемость постоянно растёт. Мы создали панель лицензирования для защиты PHP скриптов от воровства и SEO панель для мониторинга наших сайтов и выбора верной стратегии их развития. Мы надеемся что то что мы создали пригодится Вам и возможно Вы поможете нам развиваться и совершенствоваться вместе с Вами.

Статистика форума

Темы
404.531
Сообщения
461.403
Пользователи
80.030
Новый пользователь
sham945

Приложения форума для iOS и Android


У ркн там нет власти ;)
Приватные разговоры
Помощь Пользователи
    Вы не присоединились ни к одной комнате.