За последнюю неделю опубликовано 150 новых материалов.
Инструкция новичку Путеводитель по форуму Прокси для Telegram Показать подсказки , это бомба!

Скачать АКБ0048 / AKB0048 Next Stage [S02] (2013) BDRip от Stranik 2.0 | L1 бесплатно через торрент

  • Поучаствуй (в качестве покупателя) в любых пяти совместных покупках (кроме завершённых и "Моментальных") и получи группу "Новичок" навсегда -> ссылка на раздел
  • Получай до 480 рублей за каждого приглашенного пользователя!
    представляем Вам очередное расширение партнерской программы, подробности описаны тут -> ссылка
  • 90% материалов доступно к скачиванию после простой регистрации!
    Если же ты хочешь скачивать материалы без требования оставлять отзывы то получи группу "Новичок", 10 способов повышения описаны тут -> ссылка
  • К сожалению количество битых ссылок растет и мы уже не можем их оперативно восстанавливать поэтому просим помощи у каждого нашего пользователя.
    С сегодняшнего дня, за каждую восстановленную ссылку мы заплатим Вам.
    Подробнее тут -> ссылка
  • Перенесем твои заслуги с другого ресурса!
    Мы понимаем как сложно прокачивать аккаунты на форумах, вроде раскачал аккаунт, а тут появляется ресурс в 100 раз круче но тоже с системой прокачки и снова качать аккаунт...
    Предлагаем вам перенести Ваши заслуги на другом подобном ресурсе к нам.
    Подробности описаны тут -> ссылка
  • Вы можете получать по 2.5% с каждой покупки и продажи на маркете! Подробности в теме Партнёрская программа

Torrent_Bot

Торрент-Бот
Бот форума
4 Окт 2016
82
186
20
Информация о фильме

Название : АКБ0048
Оригинальное название : AKB0048 Next Stage
Год выхода : 2013
Жанр :Идолы, меха, музыкальный
Режиссер : Кавамори Сёдзи
Роли озвучивали : Моника Риал, Савако Хата, Харука Ишида, Карен Ивата, Мао Мита, Саяка Накая, Сумире Сато, Амина Сато, Маю Ватанабэ, Куми Ягами


world-art | MyAnimeList | Офиц. Сайт


Описание : После очередной мировой войны человечество потеряло родную планету и оказалось разбросано по космосу. Большинство колоний стали сырьевыми придатками, жители которых должны круглосуточно вкалывать на новых хозяев жизни. Чтобы работники не распускались, на большинстве планет Галактического Альянса введен драконовский закон «О запрете развлечений». Нельзя собираться вместе, петь, плясать, вообще публично радоваться. Нарушителей карают как полицейские, так и армейские силы. Но вся Галактика знает партизан шоу-бизнеса, террористов любви, прекрасных борцов с тоской и грустью — подпольную девичью группу AKB0048, что ведет родословную от легендарной поп-группы XXI века!

На вершине нового движения — лучшие артистки, принявшие имена идолов «той самой» АКВ48, чуть ниже — продюсеры и стажеры, далее ученицы, прибывающие отовсюду. Разумеется, у группы есть мощное военно-техническое прикрытие — ведь каждый концерт на запретных мирах превращается в войсковую операцию. Впрочем, Оринэ, Юка и Нагиса — обычные девчонки с шахтерской планеты — не знали таких подробностей, но все равно примкнули к АКВ при первом удобном случае, ибо тоже хотят песней и музыкой бороться с теми, кто поработил человечество. Сила в правде, а правда в том, что тоска и уныние — смертный грех!


Страна : Япония
Производство : AKB0048 Production Committee, GANSIS, Satelight, Starchild Records
Продолжительность : ~24 мин (13 серии)
Перевод: Любительский (одноголосый, закадровый)

Субтитры: YakuSub Studio
Перевод: Nika_Elrik
Редактор: Aero
Оформление: KeeperRus

Озвучка:Get Smart Group
- одноголосая (жен.): Persona99
По переводу: Nika_Elrik[YakuSub Studio]
Тех. работы: Дмитрий Леманн


Автор рипа и релиза : Страник 2.0


Файл
Формат видео: AVI
Качество : BDRip
Тип релиза: Полухадсаб (Надписи и песни)

Видео: XVID, 720x400 (16:9), 1764 kbps, 23.976 fps, 8bit
Аудио 1: Русский, AC-3, 192 Кбит/с, 48.0 Hz, 2 ch (в составе контейнера)
Аудио 2: Японский, AC-3, 192 Кбит/с, 48.0 Hz, 2 ch (в составе контейнера)
Субтитры (SRT): Русские [диалоги] (внешним фаилом)




Знаете ли вы что...
Аниме-сериал, вдохновлённый известной японской музыкальной группой AKB48. Аниме было создано студией Satelight, первый сезон транслировался с апреля по июль 2012 года, второй сезон с января по март 2013 года. Сериал является рекламой AKB48.

Авторы не скрывали, что сериал являлся рекламой идол-группы AKB48, «фабрики звезд», состоявшей из 4 команд по 16 основных участниц (сэнбацу) и большой группы учениц-кэнкюсэй.

В сериале артисток основного состава озвучивали известные сейю, а молодых героинь – реальные члены AKB48, они же исполняли песни.
Список эпизодов
01. Соревнование девушек
02. Шокирующее начало?!
03. Тьма идола перед рассветом
04. Новые всеобщие выборы
05. Запретная звезда
06. Наследник имени
07. Преображение Мимори
08. Битва за Акибастар
09. Внезапное предательство
10. Вопящий рай
11. За дверью
12. Путь к театру
13. Безымянные ...
Скриншоты




MediaInfo
General
Complete name : E:/Torrent_2/AKB0048 Next Stage (2013, XviD BDRip, RUS JAP+SUB) [Stranik 2.0] [Persona99.GSG]/AKB0048 Next Stage - 01. The Young Girls' Trial [Persona99.GSG].avi
Format : AVI
Format/Info : Audio Video Interleave
File size : 372 MiB
Duration : 24mn 2s
Overall bit rate : 2 163 Kbps
Writing application : VirtualDubMod 1.5.10.3 (build 2550/release)
Writing library : VirtualDubMod build 2550/release

Video #0
ID : 0
Format : MPEG-4 Visual
Format profile : Advanced [email protected]
Format settings, BVOP : 2
Format settings, QPel : No
Format settings, GMC : No warppoints
Format settings, Matrix : Custom
Codec ID : XVID
Codec ID/Hint : XviD
Duration : 24mn 2s
Bit rate : 1 764 Kbps
Width : 720 pixels
Height : 400 pixels
Display aspect ratio : 16:9
Frame rate : 23.976 fps
Color space : YUV
Chroma subsampling : 4:2:0
Bit depth : 8 bits
Scan type : Progressive
Compression mode : Lossy
Bits/(Pixel*Frame) : 0.256
Stream size : 303 MiB (82%)
Writing library : XviD 67

Audio #1
ID : 1
Format : AC-3
Format/Info : Audio Coding 3
Mode extension : CM (complete main)
Format settings, Endianness : Big
Codec ID : 2000
Duration : 24mn 2s
Bit rate mode : Constant
Bit rate : 192 Kbps
Channel(s) : 2 channels
Channel positions : Front: L R
Sampling rate : 48.0 KHz
Bit depth : 16 bits
Compression mode : Lossy
Stream size : 33.0 MiB (9%)
Alignment : Split accross interleaves
Interleave, duration : 42 ms (1.00 video frame)
Interleave, preload duration : 500 ms

Audio #2
ID : 2
Format : AC-3
Format/Info : Audio Coding 3
Mode extension : CM (complete main)
Format settings, Endianness : Big
Codec ID : 2000
Duration : 24mn 2s
Bit rate mode : Constant
Bit rate : 192 Kbps
Channel(s) : 2 channels
Channel positions : Front: L R
Sampling rate : 48.0 KHz
Bit depth : 16 bits
Compression mode : Lossy
Stream size : 33.0 MiB (9%)
Alignment : Split accross interleaves
Interleave, duration : 42 ms (1.00 video frame)
Interleave, preload duration : 500 ms

Моя максимальная скорость отдачи 100КБ/c
Раздаю с 7:00 до 1:00 по Москве
 

Вложения

  • 15,6 KB Просмотры: 1
    Личеров 0
    Сидеров 0
    Файлов 26
    Объем 4,7 GB

Привет!

Мы группа людей которые решили помочь другим в решении их проблем, а так же пользователям с поиском самых свежих и качественных инфопродуктов. За 4 с небольшим месяца мы создали этот форум на который заходят ежедневно тысячи человек и посещаемость постоянно растёт. Мы создали панель лицензирования для защиты PHP скриптов от воровства и SEO панель для мониторинга наших сайтов и выбора верной стратегии их развития. Мы надеемся что то что мы создали пригодится Вам и возможно Вы поможете нам развиваться и совершенствоваться вместе с Вами.

Статистика форума

Темы
412.341
Сообщения
471.459
Пользователи
91.888
Новый пользователь
mikchau

Приложения форума для iOS и Android


У ркн там нет власти ;)
Приватные разговоры
Помощь Пользователи
    Вы не присоединились ни к одной комнате.