За последнюю неделю опубликовано 97 новых материалов.
Инструкция новичку Путеводитель по форуму Прокси для Telegram Показать подсказки , это бомба!

Скачать Академия ведьмочек / Little Witch Academia [S01] (2017) HDTVRip 720p | SHIZA Project бесплатно через торрент

  • Поучаствуй (в качестве покупателя) в любых пяти совместных покупках (кроме завершённых и "Моментальных") и получи группу "Новичок" навсегда -> ссылка на раздел
  • Получай до 480 рублей за каждого приглашенного пользователя!
    представляем Вам очередное расширение партнерской программы, подробности описаны тут -> ссылка
  • 90% материалов доступно к скачиванию после простой регистрации!
    Если же ты хочешь скачивать материалы без требования оставлять отзывы то получи группу "Новичок", 10 способов повышения описаны тут -> ссылка
  • К сожалению количество битых ссылок растет и мы уже не можем их оперативно восстанавливать поэтому просим помощи у каждого нашего пользователя.
    С сегодняшнего дня, за каждую восстановленную ссылку мы заплатим Вам.
    Подробнее тут -> ссылка
  • Перенесем твои заслуги с другого ресурса!
    Мы понимаем как сложно прокачивать аккаунты на форумах, вроде раскачал аккаунт, а тут появляется ресурс в 100 раз круче но тоже с системой прокачки и снова качать аккаунт...
    Предлагаем вам перенести Ваши заслуги на другом подобном ресурсе к нам.
    Подробности описаны тут -> ссылка
  • Вы можете получать по 2.5% с каждой покупки и продажи на маркете! Подробности в теме Партнёрская программа

Torrent_Bot

Торрент-Бот
Бот форума
4 Окт 2016
79
194
20
Информация о фильме
Название: Академия ведьмочек
Оригинальное название: Little Witch Academia
Год выхода: 2017
Жанр: приключения, комедия, фэнтези
Режиссер: Ёсинари Ё
Художник: Номура Масанобу, Амада Тосиаки
В ролях: Хан Мэгуми, Орикаса Фумико, Мурасэ Митиё, Хикаса Ёко, Сида Ариса, Муракава Риэ, Уэда Рэйна, Хидака Норико, Хидака Норико
О фильме:
Акко Кагари в детстве попала на магическое шоу ведьмы Шайни Чариот. Это представление так воодушевило маленькую Акко, что у нее появилась мечта — стать ведьмой, такой как Чариот.
Спустя несколько лет Акко получает письмо о том, что она зачислена в одну из самых престижных школ магии — академию «Новая Луна». Однако, как только начинающая ведьма попадает в академию, новая жизнь сразу омрачается. Большинство студенток считает, что такая, как Кагари — в семье которой нет магов — не имеет права находиться в столь престижном месте. Кроме того, никто из ее однокурсниц не разделяет восхищения в адрес Шайни Чариот. Но Акко не падает духом, ведь она поставила себе цель — стать знаменитой волшебницей!
И хоть Чариот не является примером для подражания в академии, Акко ни за что не предаст ее, так как на пути к своей мечте ей еще многому предстоит научиться

48a092a1db858d1eba86e4eac394581f.gife221182bdfb6626c238fd5d09540aa58.gif4d20cbf86f7cccfc57aa82cbff8ddb3f.gif
World Art | MAL

Страна: Япония
Студия: Trigger
Продолжительность: 00:24:00
Язык: Русский, Японский
Перевод: Любительский (многоголосый, закадровый)

Файл
Качество: HDTVRip
Формат: MKV
Видео кодек: H.264
Аудио кодек: AAC
Видео: 1280x720, 23.976 fps, 3500 kbps
Аудио RUS: 48.0 kHz, AAC, 2 ch, 192 kbps - SHIZA Project
Аудио JAP: 48.0 kHz, AAC, 2 ch, 192 kbps
Субтитры: русские (встроенные полный перевод, ASS) - LeDi-MaHo Team
Субтитры: русские (встроенные полный перевод, ASS) - GMC

Релиз от:
Озвучивание: Snowly, Viki, Лизавета, Тань-УХ-а, Акварелька
Перевод: LeDi-MaHo Team
Тайминг и работа со звуком: HipsterCat (01-03), Herizon (04-11 и 13-25), SolarSpark (11-13)

Скриншоты
c4907ecac62b4455ec9db13523899217.jpg860b2bef47d38d56568e81e682000876.jpga52a7e5edee5075a7cfeae1012068f94.jpg86cca8dd4dd172163b8411d4833ce37a.jpgd5cbd327adc8b6f83bdff1f1a3b1ca4e.jpg
Список серий
01. A New Beginning
02. Papillodea
03. Don`t Stop Me Now
04. Nightfall
05. Luna Nova and the White Dragon
06. The Fountain of Polaris
07. Orange Submariner
08. Sleeping Sucy
09. Brightonberry`s Undead Travel Log
10. Bee Commotion
11. Blue Moon
12. What You Will
13. Samhain Magic
14. New Age Magic
15. Chariot of Fire
16. The Trial of Pohjola
17. Amanda O`Neill and the Holy Grail
18. Sky War Stanship
19. Cavendish
20. Intellect and Sensitivity
21. Wagandea
22. Chariot and Croix
23. Yesterday
24. The Road to Arcturus
25. Tree of Wishes
MediaInfo
General
Format : Matroska
Format version : Version 4 / Version 2
File size : 680 MiB
Duration : 24 min
Overall bit rate : 3 963 kb/s
Encoded date : UTC 2017-06-18 13:09:02
Writing application : mkvmerge v8.3.0 ('Over the Horizon') 64bit
Writing library : libebml v1.3.1 + libmatroska v1.4.2

Video
ID : 1
Format : AVC
Format/Info : Advanced Video Codec
Format profile : [email protected]
Format settings, CABAC : Yes
Format settings, ReFrames : 4 frames
Codec ID : V_MPEG4/ISO/AVC
Duration : 23 min
Bit rate : 3 576 kb/s
Width : 1 280 pixels
Height : 720 pixels
Display aspect ratio : 16:9
Frame rate mode : Constant
Frame rate : 23.976 (24000/1001) FPS
Color space : YUV
Chroma subsampling : 4:2:0
Bit depth : 8 bits
Scan type : Progressive
Bits/(Pixel*Frame) : 0.162
Stream size : 614 MiB (90%)
Writing library : x264 core 129 r2245+729M 1a52e03
Encoding settings : cabac=1 / ref=4 / deblock=1:1:-1 / analyse=0x3:0x113 / me=umh / subme=9 / psy=1 / fade_compensate=0.00 / psy_rd=1.00:0.00 / mixed_ref=1 / me_range=24 / chroma_me=1 / trellis=2 / 8x8dct=1 / cqm=0 / deadzone=21,11 / fast_pskip=1 / chroma_qp_offset=-2 / threads=8 / lookahead_threads=1 / sliced_threads=0 / nr=0 / decimate=1 / interlaced=0 / bluray_compat=0 / constrained_intra=0 / fgo=0 / bframes=9 / b_pyramid=2 / b_adapt=2 / b_bias=0 / direct=1 / weightb=1 / open_gop=0 / weightp=2 / keyint=240 / keyint_min=24 / scenecut=40 / intra_refresh=0 / rc=crf / mbtree=0 / crf=17.5 / qcomp=0.72 / qpmin=0 / qpmax=69 / qpstep=4 / ip_ratio=1.40 / pb_ratio=1.30 / aq=1:0.85
Default : Yes
Forced : No
Color range : Limited
Color primaries : BT.709
Transfer characteristics : BT.709
Matrix coefficients : BT.709

Audio #1
ID : 2
Format : AAC
Format/Info : Advanced Audio Codec
Format profile : LC
Codec ID : A_AAC
Duration : 24 min
Bit rate : 192 kb/s
Channel(s) : 2 channels
Channel positions : Front: L R
Sampling rate : 48.0 kHz
Frame rate : 46.875 FPS (1024 spf)
Compression mode : Lossy
Stream size : 32.9 MiB (5%)
Title : SHIZA Project
Language : Russian
Default : Yes
Forced : No

Audio #2
ID : 3
Format : AAC
Format/Info : Advanced Audio Codec
Format profile : LC
Codec ID : A_AAC
Duration : 23 min
Bit rate : 192 kb/s
Channel(s) : 2 channels
Channel positions : Front: L R
Sampling rate : 48.0 kHz
Frame rate : 46.875 FPS (1024 spf)
Compression mode : Lossy
Stream size : 32.9 MiB (5%)
Title : Original
Language : Japanese
Default : No
Forced : No

Text #1
ID : 4
Format : ASS
Codec ID : S_TEXT/ASS
Codec ID/Info : Advanced Sub Station Alpha
Duration : 21 min
Bit rate : 105 b/s
Count of elements : 269
Compression mode : Lossless
Stream size : 16.9 KiB (0%)
Title : Полные субтитры - LeDi-MaHo Team
Language : Russian
Default : Yes
Forced : No

Text #2
ID : 5
Format : ASS
Codec ID : S_TEXT/ASS
Codec ID/Info : Advanced Sub Station Alpha
Duration : 23 min
Bit rate : 542 b/s
Count of elements : 571
Compression mode : Lossless
Stream size : 93.2 KiB (0%)
Title : Полные субтитры - GMC
Language : Russian
Default : No
Forced : No
 

Вложения

Привет!

Мы группа людей которые решили помочь другим в решении их проблем, а так же пользователям с поиском самых свежих и качественных инфопродуктов. За 4 с небольшим месяца мы создали этот форум на который заходят ежедневно тысячи человек и посещаемость постоянно растёт. Мы создали панель лицензирования для защиты PHP скриптов от воровства и SEO панель для мониторинга наших сайтов и выбора верной стратегии их развития. Мы надеемся что то что мы создали пригодится Вам и возможно Вы поможете нам развиваться и совершенствоваться вместе с Вами.

Статистика форума

Темы
414.370
Сообщения
475.396
Пользователи
96.561
Новый пользователь
starushka

Приложения форума для iOS и Android


У ркн там нет власти ;)
Приватные разговоры
Помощь Пользователи
    Вы не присоединились ни к одной комнате.