За последнюю неделю опубликовано 82 новых материалов.
Инструкция новичку Путеводитель по форуму Прокси для Telegram Показать подсказки , это бомба!

Скачать Айкацу на параде! / Aikatsu on Parade! [S01] (2019) WEBRip 720p от WorldAnime | Sub бесплатно через торрент

  • Поучаствуй (в качестве покупателя) в любых пяти совместных покупках (кроме завершённых и "Моментальных") и получи группу "Новичок" навсегда -> ссылка на раздел
  • Получай до 480 рублей за каждого приглашенного пользователя!
    представляем Вам очередное расширение партнерской программы, подробности описаны тут -> ссылка
  • 90% материалов доступно к скачиванию после простой регистрации!
    Если же ты хочешь скачивать материалы без требования оставлять отзывы то получи группу "Новичок", 10 способов повышения описаны тут -> ссылка
  • К сожалению количество битых ссылок растет и мы уже не можем их оперативно восстанавливать поэтому просим помощи у каждого нашего пользователя.
    С сегодняшнего дня, за каждую восстановленную ссылку мы заплатим Вам.
    Подробнее тут -> ссылка
  • Перенесем твои заслуги с другого ресурса!
    Мы понимаем как сложно прокачивать аккаунты на форумах, вроде раскачал аккаунт, а тут появляется ресурс в 100 раз круче но тоже с системой прокачки и снова качать аккаунт...
    Предлагаем вам перенести Ваши заслуги на другом подобном ресурсе к нам.
    Подробности описаны тут -> ссылка
  • Вы можете получать по 2.5% с каждой покупки и продажи на маркете! Подробности в теме Партнёрская программа

Torrent_Bot

Торрент-Бот
Бот форума
4 Окт 2016
104
152
20


Информация о фильме
Название: Айкацу на параде! / Парад Айкацу!
Оригинальное название: Aikatsu on Parade!
Год выпуска: 2019
Жанр:Повседневность, музыкальный, школа, сёдзё
Режиссер: Игараси Тацуя
Озвучено: Айра Рин, Мацунага Аканэ, Кидо Ибуки, Морохоси Сумирэ, Симодзи Сино, Томита Мию

О фильме: Раки Кисэки - ученица второго года средней школы, которая переходит в Академию Звездной Гармонии, чтобы стать айдолом. Однако когда она использует пропуск, полученный от старшей сестры (инженера Айкацу), происходит что-то странное. Перед Раки появляется множество дверей, открыв которые, она встречает айдолов Айкацу, которых никогда прежде не знала, таких как Юмэ Нидзино ("Звезды Айкацу!"). Раки клянется разработать свое собственное платье премиум-класса и выступить в нем на сцене.

Страна: Япония
Студия: BN Pictures
Продолжительность: 25 х ~ 00:24:30
Перевод: Субтитры DDSub

Файл
Кодек: H.264
Качество: WEBRip 720p
Видео: ~ 2500 Кбит/с, 1280x720, 23.000 FPS
Аудио: AC3, 2 ch, 96 Кбит/с - Японский
Субтитры: Русские




MediaInfo
G:WorldAnime2019.Aikatsu.on.Parade!.S01.WEBRip.720pAikatsu.on.Parade!.S01E03.WEBRip.720p.mkv
Format : Matroska
Format version : Version 4 / Version 2
File size : 454 MiB
Duration : 24 min 24 s
Overall bit rate : 2 598 kb/s
Writing application : Lavf58.29.100
Writing library : Lavf58.29.100
ErrorDetectionType : Per level 1

Video
ID : 1
Format : AVC
Format/Info : Advanced Video Codec
Format profile : High@L3.1
Format settings : CABAC / 4 Ref Frames
Format settings, CABAC : Yes
Format settings, ReFrames : 4 frames
Codec ID : V_MPEG4/ISO/AVC
Duration : 24 min 24 s
Bit rate : 2 501 kb/s
Width : 1 280 pixels
Height : 720 pixels
Display aspect ratio : 16:9
Frame rate mode : Constant
Frame rate : 23.000 FPS
Color space : YUV
Chroma subsampling : 4:2:0
Bit depth : 8 bits
Scan type : Progressive
Bits/(Pixel*Frame) : 0.118
Stream size : 428 MiB (94%)
Writing library : x264 core 157
Encoding settings : cabac=1 / ref=3 / deblock=1:0:0 / analyse=0x3:0x113 / me=hex / subme=7 / psy=1 / psy_rd=1.00:0.00 / mixed_ref=1 / me_range=16 / chroma_me=1 / trellis=1 / 8x8dct=1 / cqm=0 / deadzone=21,11 / fast_pskip=1 / chroma_qp_offset=-2 / threads=6 / lookahead_threads=1 / sliced_threads=0 / nr=0 / decimate=1 / interlaced=0 / bluray_compat=0 / constrained_intra=0 / bframes=3 / b_pyramid=2 / b_adapt=1 / b_bias=0 / direct=1 / weightb=1 / open_gop=0 / weightp=2 / keyint=250 / keyint_min=23 / scenecut=40 / intra_refresh=0 / rc_lookahead=40 / rc=abr / mbtree=1 / bitrate=2501 / ratetol=1.0 / qcomp=0.60 / qpmin=0 / qpmax=69 / qpstep=4 / ip_ratio=1.40 / aq=1:1.00
Language : English
Default : Yes
Forced : No

Audio
ID : 2
Format : AC-3
Format/Info : Audio Coding 3
Codec ID : A_AC3
Duration : 24 min 24 s
Bit rate mode : Constant
Bit rate : 96.0 kb/s
Channel(s) : 2 channels
Channel positions : Front: L R
Sampling rate : 44.1 kHz
Frame rate : 28.711 FPS (1536 SPF)
Bit depth : 16 bits
Compression mode : Lossy
Delay relative to video : -43 ms
Stream size : 16.8 MiB (4%)
Writing library : Lavc58.54.100 ac3
Language : Japanese
Service kind : Complete Main
Default : Yes
Forced : No

Скриншоты


Релиз от:Saint.Oni[WorldAnime]
 

Вложения

  • 86,5 KB Просмотры: 0
    Личеров 0
    Сидеров 0
    Файлов 25
    Объем 8,4 GB

Привет!

Мы группа людей которые решили помочь другим в решении их проблем, а так же пользователям с поиском самых свежих и качественных инфопродуктов. За 4 с небольшим месяца мы создали этот форум на который заходят ежедневно тысячи человек и посещаемость постоянно растёт. Мы создали панель лицензирования для защиты PHP скриптов от воровства и SEO панель для мониторинга наших сайтов и выбора верной стратегии их развития. Мы надеемся что то что мы создали пригодится Вам и возможно Вы поможете нам развиваться и совершенствоваться вместе с Вами.

Статистика форума

Темы
404.536
Сообщения
461.420
Пользователи
80.057
Новый пользователь
hrywnia

Приложения форума для iOS и Android


У ркн там нет власти ;)
Приватные разговоры
Помощь Пользователи
    Вы не присоединились ни к одной комнате.