За последнюю неделю опубликовано 113 новых материалов.
Инструкция новичку Путеводитель по форуму Прокси для Telegram Показать подсказки , это бомба!

Скачать Аида Ведищева - Золотая коллекция Ретро (2003) APE by гаврила бесплатно через торрент

  • Поучаствуй (в качестве покупателя) в любых пяти совместных покупках (кроме завершённых и "Моментальных") и получи группу "Новичок" навсегда -> ссылка на раздел
  • Получай до 480 рублей за каждого приглашенного пользователя!
    представляем Вам очередное расширение партнерской программы, подробности описаны тут -> ссылка
  • 90% материалов доступно к скачиванию после простой регистрации!
    Если же ты хочешь скачивать материалы без требования оставлять отзывы то получи группу "Новичок", 10 способов повышения описаны тут -> ссылка
  • К сожалению количество битых ссылок растет и мы уже не можем их оперативно восстанавливать поэтому просим помощи у каждого нашего пользователя.
    С сегодняшнего дня, за каждую восстановленную ссылку мы заплатим Вам.
    Подробнее тут -> ссылка
  • Перенесем твои заслуги с другого ресурса!
    Мы понимаем как сложно прокачивать аккаунты на форумах, вроде раскачал аккаунт, а тут появляется ресурс в 100 раз круче но тоже с системой прокачки и снова качать аккаунт...
    Предлагаем вам перенести Ваши заслуги на другом подобном ресурсе к нам.
    Подробности описаны тут -> ссылка
  • Вы можете получать по 2.5% с каждой покупки и продажи на маркете! Подробности в теме Партнёрская программа

Torrent_Bot

Торрент-Бот
Бот форума
4 Окт 2016
123
108
20
Трэклист:
1. Песенка о медведях (А.Зацепин - Л.Дербенёв)
2. Я буду ждать тебя (А.Зацепин - О.Гаджикасимов)
3. Всё равно ты будешь мой (А.Зацепин - Л.Дербенёв)
4. Арифметика (В.Хвойницкий - Н.Олев)
5. Куда же вы спешите (Б.Савельев - Л.Дербенёв)
6. Чёт или нечёт (В.Гамалия - И.Шаферан)
7. Не родись красивой (Р.Майоров - О.Гаджикасимов)
8. Найди меня (В.Хвойницкий - Г.Бейлин)
9. Дорожная (А.Зацепин - О.Гаджикасимов)
10. Песня о весне (А.Зацепин - Я.Зискинд)
11. Песенка вполголоса (С.Заславский - М.Пляцковский)
12. Колыбельная медведицы (Е.Крылатов - Ю.Яковлев)
13. Лесной олень (Е.Крылатов - Ю.Энтин)
14. Гололёд (А.Зацепин - Л.Дербенёв)
15. Гуси, гуси (С.Пожлаков - Н.Малышев)
16. Человек придумал песню (И.Гранов - Л.Дербенёв)
17. Просто возраст мой такой (Б.Савельев - М.Пляцковский)
18. Помоги мне (А.Зацепин - Л.Дербенёв)
Доп. информация: Записи 1966 - 1971 гг.

Жанр:Retro
Год выпуска диска: 2003
Производитель диска: Россия
Аудио кодек: APE
Тип рипа: image+.cue
Битрейт аудио: lossless
Продолжительность: 49м 55с

Exact Audio Copy V0.99 prebeta 4 from 23. January 2008
Отчёт EAC об извлечении, выполненном 2. августа 2008, 17:12
Аида Ведищева / Золотая коллекция ретро
Дисковод: Optiarc DVD RW AD-5170A Adapter: 0 ID: 0
Режим чтения : Достоверность
Использование точного потока : Да
Отключение кэша аудио : Да
Использование указателей C2 : Нет
Коррекция смещения при чтении : 48
Способность читать области Lead-in и Lead-out : Нет
Заполнение пропущенных сэмплов тишиной : Да
Удаление блоков с тишиной в начале и конце : Нет
При вычислениях CRC использовались нулевые сэмплы : Да
Интерфейс : Встроенный Win32-интерфейс для Win NT/2000
Выходной формат : Внутренние WAV-операции
Формат сэмплов : 44.100 Гц; 16 бит; стерео
TOC извлечённого CD
Трек | Старт | Длительность | Начальный сектор | Конечный сектор
---------------------------------------------------------------------
1 | 0:00.00 | 2:56.49 | 0 | 13248
2 | 2:56.49 | 3:26.32 | 13249 | 28730
3 | 6:23.06 | 1:53.40 | 28731 | 37245
4 | 8:16.46 | 2:47.00 | 37246 | 49770
5 | 11:03.46 | 2:16.09 | 49771 | 59979
6 | 13:19.55 | 2:36.37 | 59980 | 71716
7 | 15:56.17 | 2:19.14 | 71717 | 82155
8 | 18:15.31 | 2:22.27 | 82156 | 92832
9 | 20:37.58 | 2:32.07 | 92833 | 104239
10 | 23:09.65 | 2:27.36 | 104240 | 115300
11 | 25:37.26 | 2:40.14 | 115301 | 127314
12 | 28:17.40 | 2:02.37 | 127315 | 136501
13 | 30:20.02 | 2:53.30 | 136502 | 149506
14 | 33:13.32 | 3:26.53 | 149507 | 165009
15 | 36:40.10 | 2:18.72 | 165010 | 175431
16 | 38:59.07 | 2:48.14 | 175432 | 188045
17 | 41:47.21 | 3:34.16 | 188046 | 204111
18 | 45:21.37 | 4:33.53 | 204112 | 224639
Характеристики диапазона извлечения и сообщения об ошибках
Выбранный диапазон
Имя файла D:AudioАида Ведищева - Золотая коллекция ретро.wav
Пиковый уровень 84.4 %
Качество диапазона 99.9 %
CRC копии 8414FFB0
Копирование... OK
Ошибок не произошло
Конец отчёта
 

Вложения

  • 19,4 KB Просмотры: 1
    Личеров 0
    Сидеров 0
    Файлов 8
    Объем 228,7 MB

Привет!

Мы группа людей которые решили помочь другим в решении их проблем, а так же пользователям с поиском самых свежих и качественных инфопродуктов. За 4 с небольшим месяца мы создали этот форум на который заходят ежедневно тысячи человек и посещаемость постоянно растёт. Мы создали панель лицензирования для защиты PHP скриптов от воровства и SEO панель для мониторинга наших сайтов и выбора верной стратегии их развития. Мы надеемся что то что мы создали пригодится Вам и возможно Вы поможете нам развиваться и совершенствоваться вместе с Вами.

Статистика форума

Темы
384.674
Сообщения
427.827
Пользователи
59.008
Новый пользователь
wertinio

Приложения форума для iOS и Android


У ркн там нет власти ;)
Приватные разговоры
Помощь Пользователи
    Вы не присоединились ни к одной комнате.