За последнюю неделю опубликовано 70 новых материалов.
Инструкция новичку Путеводитель по форуму Прокси для Telegram Показать подсказки , это бомба!

Скачать Ai Kuwabara with Steve Gadd and Will Lee ‎- Live at Blue Note Tokyo [24bit Hi-Res] (2019) FLAC бесплатно через торрент

  • Поучаствуй (в качестве покупателя) в любых пяти совместных покупках (кроме завершённых и "Моментальных") и получи группу "Новичок" навсегда -> ссылка на раздел
  • Получай до 480 рублей за каждого приглашенного пользователя!
    представляем Вам очередное расширение партнерской программы, подробности описаны тут -> ссылка
  • 90% материалов доступно к скачиванию после простой регистрации!
    Если же ты хочешь скачивать материалы без требования оставлять отзывы то получи группу "Новичок", 10 способов повышения описаны тут -> ссылка
  • К сожалению количество битых ссылок растет и мы уже не можем их оперативно восстанавливать поэтому просим помощи у каждого нашего пользователя.
    С сегодняшнего дня, за каждую восстановленную ссылку мы заплатим Вам.
    Подробнее тут -> ссылка
  • Перенесем твои заслуги с другого ресурса!
    Мы понимаем как сложно прокачивать аккаунты на форумах, вроде раскачал аккаунт, а тут появляется ресурс в 100 раз круче но тоже с системой прокачки и снова качать аккаунт...
    Предлагаем вам перенести Ваши заслуги на другом подобном ресурсе к нам.
    Подробности описаны тут -> ссылка
  • Вы можете получать по 2.5% с каждой покупки и продажи на маркете! Подробности в теме Партнёрская программа

Torrent_Bot

Торрент-Бот
Бот форума
4 Окт 2016
82
186
20



Исполнитель: Ai Kuwabara, Steve Gadd, Will Lee
Название: Live at Blue Note Tokyo
Жанр: Contemporary-Jazz
Год: 2019
Продолжительность: 01:10:34
Битрейт аудио: Lossless
Формат/Кодек: FLAC
Тип рипа: tracks
Разрядность: 24/48
Количество каналов: 2.0


01. Somehow It's Been A Rough Day (09:03)
02. How Do You Keep The Music Playing? (06:02)
03. Black Orfeus Medley (12:10)
04. Whereabouts (07:20)
05. SAW (06:48)
06. March Comes In Like A Lion (07:12)
07. All Life Will End Someday, Only The Sea Will Remain (05:34)
08. Blue Rondo à la Turk (08:00)
09. The Back (08:25)

DR
foobar2000 1.4.4 / Замер динамического диапазона (DR) 1.1.1
Дата отчёта: 2019-06-17 06:17:55

--------------------------------------------------------------------------------
Анализ: Ai Kuwabara / Live At Blue Note Tokyo
--------------------------------------------------------------------------------

DR Пики RMS Продолжительность трека
--------------------------------------------------------------------------------
DR8 -0.30 дБ -12.94 дБ 9:03 01-Somehow It's Been A Rough Day
DR11 -0.30 дБ -16.52 дБ 6:02 02-How Do You Keep The Music Playing?
DR7 -0.30 дБ -11.97 дБ 12:11 03-Black Orfeus Medley
DR11 -0.30 дБ -15.64 дБ 7:21 04-Whereabouts
DR8 -0.30 дБ -10.56 дБ 6:49 05-SAW
DR8 -0.30 дБ -11.37 дБ 7:13 06-March Comes In Like A Lion
DR8 -0.30 дБ -11.45 дБ 5:35 07-All Life Will End Someday, Only The Sea Will Remain
DR8 -0.30 дБ -13.00 дБ 8:01 08-Blue Rondo à la Turk
DR8 -0.30 дБ -14.65 дБ 8:25 09-The Back
--------------------------------------------------------------------------------

Количество треков: 9
Реальные значения DR: DR9

Частота: 48000 Гц
Каналов: 2
Разрядность: 24
Битрейт: 1527 кбит/с
Кодек: FLAC
================================================================================
 

Вложения

  • 17,2 KB Просмотры: 1
    Личеров 0
    Сидеров 0
    Файлов 10
    Объем 803,6 MB

Привет!

Мы группа людей которые решили помочь другим в решении их проблем, а так же пользователям с поиском самых свежих и качественных инфопродуктов. За 4 с небольшим месяца мы создали этот форум на который заходят ежедневно тысячи человек и посещаемость постоянно растёт. Мы создали панель лицензирования для защиты PHP скриптов от воровства и SEO панель для мониторинга наших сайтов и выбора верной стратегии их развития. Мы надеемся что то что мы создали пригодится Вам и возможно Вы поможете нам развиваться и совершенствоваться вместе с Вами.

Статистика форума

Темы
412.178
Сообщения
471.224
Пользователи
91.671
Новый пользователь
олег_2021

Приложения форума для iOS и Android


У ркн там нет власти ;)
Приватные разговоры
Помощь Пользователи
    Вы не присоединились ни к одной комнате.