За последнюю неделю опубликовано 59 новых материалов.
Инструкция новичку Путеводитель по форуму Прокси для Telegram Показать подсказки , это бомба!

Скачать Агент Наджика / Najica Dengeki Sakusen / Najica Blitz Tactics [S01] (2001) DVDRip-AVC | P бесплатно через торрент

  • Поучаствуй (в качестве покупателя) в любых пяти совместных покупках (кроме завершённых и "Моментальных") и получи группу "Новичок" навсегда -> ссылка на раздел
  • Получай до 480 рублей за каждого приглашенного пользователя!
    представляем Вам очередное расширение партнерской программы, подробности описаны тут -> ссылка
  • 90% материалов доступно к скачиванию после простой регистрации!
    Если же ты хочешь скачивать материалы без требования оставлять отзывы то получи группу "Новичок", 10 способов повышения описаны тут -> ссылка
  • К сожалению количество битых ссылок растет и мы уже не можем их оперативно восстанавливать поэтому просим помощи у каждого нашего пользователя.
    С сегодняшнего дня, за каждую восстановленную ссылку мы заплатим Вам.
    Подробнее тут -> ссылка
  • Перенесем твои заслуги с другого ресурса!
    Мы понимаем как сложно прокачивать аккаунты на форумах, вроде раскачал аккаунт, а тут появляется ресурс в 100 раз круче но тоже с системой прокачки и снова качать аккаунт...
    Предлагаем вам перенести Ваши заслуги на другом подобном ресурсе к нам.
    Подробности описаны тут -> ссылка
  • Вы можете получать по 2.5% с каждой покупки и продажи на маркете! Подробности в теме Партнёрская программа

Torrent_Bot

Торрент-Бот
Бот форума
4 Окт 2016
102
157
20


Информация о фильме
Название: Агент Наджика
Оригинальное название: Najica Dengeki Sakusen
Год выхода: 2001
Жанр: Комедия, приключения, этти
Режиссер: Нисидзима Кацухико
[Страна: Япония
Студия: Studio Fantasia, Amber Film Works
Продолжительность: 12 x ~00:25:00

Описание:
Главная героиня, Хираги Наджика, известный модный парфюмер, давно ведёт двойную жизнь. Основной род её занятий — шпионаж. Как секретный агент, она выполняет самые сложные задания, используя в своей работе боевые искусства, оружие, особую военную технику и, самое главное, женские чары. Но с некоторых пор у агента Наджики, помимо прочих секретных поручений, появляется особая специализация по возвращению в научный центр хуманидов — искусственных людей. Сможет ли хуманид стать её полноценным напарником, все ли хуманиды одинаковы, способен ли хуманид чувствовать как настоящий человек — всё это Наджика познает на собственном опыте. В сериале Наджика посещает разные континенты, где сражается с различными противниками.
© Википедия



Перевод: Профессиональный (многоголосый, закадровый) MC Entertainment

Субтитры: Русские, английские

Файл
Кодек: x264 | Качество: DVDRip-AVC | Рип: Tipota
Видео: AVC/H264, 720x480 (640x480), ~1400 kbps, 23.976 fps, 10 bit
Аудио 1: rus, AC3, 48.0 khz, 5.1 ch, 384 kbps | MC Entertainment
Аудио 2: jpn, AAC LC, 48.0 khz, 2.0 ch, ~190 kbps | Original
Аудио 3: eng, AAC LC, 48.0 khz, 2.0 ch, ~125 kbps | Dubbing

Скриншоты

MediaInfo
General
Unique ID : 124712486914104179580736879448702596005 (0x5DD2C0551C5C24B36E2B609976A433A5)
Complete name : 01. Агент-красавица с розой в руках.mkv
Format : Matroska
Format version : Version 4
File size : 352 MiB
Duration : 23 min 16 s
Overall bit rate : 2 116 kb/s
Encoded date : UTC 2020-07-12 16:33:30
Writing application : mkvmerge v40.0.0 ('Old Town Road + Pony') 64-bit
Writing library : libebml v1.3.9 + libmatroska v1.5.2

Video
ID : 1
Format : AVC
Format/Info : Advanced Video Codec
Format profile : High 10@L4.1
Format settings : CABAC / 16 Ref Frames
Format settings, CABAC : Yes
Format settings, Reference fra : 16 frames
Codec ID : V_MPEG4/ISO/AVC
Duration : 23 min 16 s
Bit rate : 1 400 kb/s
Width : 720 pixels
Height : 480 pixels
Display aspect ratio : 4:3
Frame rate mode : Constant
Frame rate : 23.976 (24000/1001) FPS
Color space : YUV
Chroma subsampling : 4:2:0
Bit depth : 10 bits
Scan type : Progressive
Bits/(Pixel*Frame) : 0.169
Stream size : 234 MiB (66%)
Title : Video
Writing library : x264 core 120 r2164 da19765
Encoding settings : cabac=1 / ref=16 / deblock=1:0:0 / analyse=0x3:0x133 / me=umh / subme=9 / psy=1 / psy_rd=1.00:0.00 / mixed_ref=1 / me_range=16 / chroma_me=1 / trellis=2 / 8x8dct=1 / cqm=0 / deadzone=21,11 / fast_pskip=1 / chroma_qp_offset=-2 / threads=3 / sliced_threads=0 / nr=0 / decimate=0 / interlaced=0 / bluray_compat=0 / constrained_intra=0 / bframes=7 / b_pyramid=2 / b_adapt=2 / b_bias=0 / direct=3 / weightb=1 / open_gop=0 / weightp=2 / keyint=250 / keyint_min=24 / scenecut=40 / intra_refresh=0 / rc=2pass / mbtree=0 / bitrate=1400 / ratetol=1.0 / qcomp=0.60 / qpmin=10 / qpmax=48 / qpstep=4 / cplxblur=0.0 / qblur=0.5 / ip_ratio=1.40 / pb_ratio=1.30 / aq=1:1.00
Language : Japanese
Default : Yes
Forced : No

Audio #1
ID : 2
Format : AC-3
Format/Info : Audio Coding 3
Commercial name : Dolby Digital
Codec ID : A_AC3
Duration : 23 min 15 s
Bit rate mode : Constant
Bit rate : 384 kb/s
Channel(s) : 6 channels
Channel layout : L R C LFE Ls Rs
Sampling rate : 48.0 kHz
Frame rate : 31.250 FPS (1536 SPF)
Compression mode : Lossy
Delay relative to video : 260 ms
Stream size : 63.9 MiB (18%)
Title : MC Entertainment
Language : Russian
Service kind : Complete Main
Default : Yes
Forced : No

Audio #2
ID : 3
Format : AAC LC
Format/Info : Advanced Audio Codec Low Complexity
Codec ID : A_AAC-2
Duration : 23 min 16 s
Bit rate : 192 kb/s
Channel(s) : 2 channels
Channel layout : L R
Sampling rate : 48.0 kHz
Frame rate : 46.875 FPS (1024 SPF)
Compression mode : Lossy
Delay relative to video : 9 ms
Stream size : 32.4 MiB (9%)
Title : Original
Language : Japanese
Default : No
Forced : No

Audio #3
ID : 4
Format : AAC LC
Format/Info : Advanced Audio Codec Low Complexity
Codec ID : A_AAC-2
Duration : 23 min 16 s
Bit rate : 129 kb/s
Channel(s) : 2 channels
Channel layout : L R
Sampling rate : 48.0 kHz
Frame rate : 46.875 FPS (1024 SPF)
Compression mode : Lossy
Delay relative to video : 260 ms
Stream size : 21.5 MiB (6%)
Title : Dubbing
Language : English
Default : No
Forced : No

Menu
00:00:00.000 : en:Opening
00:01:46.523 : en:part A
00:11:17.594 : en:part B
00:21:30.372 : en:Ending
00:23:00.421 : en:preview

Эпизоды
01. A Magnificent Secret Agent with a Rose in her Hand
02. A Pretty Partner with a Gun in her Hands
03. Ugly Relics in the Jet Black Darkness
04. The Fictitious Star with a Sweet Trap-like Perfume
05. A Crimson Horizon Appears with an Empty Dream
06. The Beautiful Eye of the Wild Beast Appears with the Shadow of Loneliness
07. The Bullet of Murderous Intent Appears with a Dry Smilee
08. The Sky of the Desire Appears with the Flame by the Battle
09. A Brave Lion in the Desert Appears with the Goddess of the Destiny
10. The Terminal Station of the Fight Appears with Dangerous Love
11. The Sad Parting Mission with Girl`s Sincerity
12. A Splendid Agent has the Rose of the Encounter in the Mind
Special:
Omake: Lila Encore Mission Announcement
 

Вложения

  • 27,6 KB Просмотры: 0
    Личеров 0
    Сидеров 0
    Файлов 58
    Объем 4,2 GB

Привет!

Мы группа людей которые решили помочь другим в решении их проблем, а так же пользователям с поиском самых свежих и качественных инфопродуктов. За 4 с небольшим месяца мы создали этот форум на который заходят ежедневно тысячи человек и посещаемость постоянно растёт. Мы создали панель лицензирования для защиты PHP скриптов от воровства и SEO панель для мониторинга наших сайтов и выбора верной стратегии их развития. Мы надеемся что то что мы создали пригодится Вам и возможно Вы поможете нам развиваться и совершенствоваться вместе с Вами.

Статистика форума

Темы
405.486
Сообщения
462.608
Пользователи
80.702
Новый пользователь
Dobryden

Приложения форума для iOS и Android


У ркн там нет власти ;)
Приватные разговоры
Помощь Пользователи
    Вы не присоединились ни к одной комнате.