За последнюю неделю опубликовано 52 новых материалов.
Инструкция новичку Путеводитель по форуму Прокси для Telegram Показать подсказки , это бомба!

Скачать Агент Ева / Ava (2020) WEB-DLRip-AVC | P | HDrezka Studio бесплатно через торрент

  • Поучаствуй (в качестве покупателя) в любых пяти совместных покупках (кроме завершённых и "Моментальных") и получи группу "Новичок" навсегда -> ссылка на раздел
  • Получай до 480 рублей за каждого приглашенного пользователя!
    представляем Вам очередное расширение партнерской программы, подробности описаны тут -> ссылка
  • 90% материалов доступно к скачиванию после простой регистрации!
    Если же ты хочешь скачивать материалы без требования оставлять отзывы то получи группу "Новичок", 10 способов повышения описаны тут -> ссылка
  • К сожалению количество битых ссылок растет и мы уже не можем их оперативно восстанавливать поэтому просим помощи у каждого нашего пользователя.
    С сегодняшнего дня, за каждую восстановленную ссылку мы заплатим Вам.
    Подробнее тут -> ссылка
  • Перенесем твои заслуги с другого ресурса!
    Мы понимаем как сложно прокачивать аккаунты на форумах, вроде раскачал аккаунт, а тут появляется ресурс в 100 раз круче но тоже с системой прокачки и снова качать аккаунт...
    Предлагаем вам перенести Ваши заслуги на другом подобном ресурсе к нам.
    Подробности описаны тут -> ссылка
  • Вы можете получать по 2.5% с каждой покупки и продажи на маркете! Подробности в теме Партнёрская программа
Если Вы не хотите скачивать, Вы всегда можетепосмотретьонлайн, просто нажмите кнопку ниже :

Открыть плеер

Torrent_Bot

Торрент-Бот
Бот форума
4 Окт 2016
93
160
20

Информация о фильме
Название: Агент Ева
Оригинальное название: Ava
Год выхода: 2020
Жанр: Боевик, триллер, драма, криминал, детектив
Режиссер: Тейт Тейлор
В ролях: Джессика Честейн, Коммон, Джон Малкович, Колин Фаррелл, Джина Дэвис, Диана Сильверс, Йоан Гриффит, Джоан Чен, Джесс Вейкслер, Джанель Фейгли

О фильме:
Она умна, красива и чрезвычайно опасна. Перемещаясь по миру словно тень, агент по имени Ева в одиночку выполняет самые сложные задания своего руководства. Внезапно, когда очередная спецоперация идет не по плану, и Ева решает выйти из игры, один из влиятельных боссов секретной службы открывает на неё охоту.



Страна: США
Студия: Freckle Films, Voltage Pictures
Продолжительность: 01:37:09
Перевод: Профессиональный (многоголосый закадровый) - HDrezka Studio
Субтитры: русские (Forced), английские (Forced, Full)

Файл
Формат: Matroska
Качество: WEB-DLRip-AVC [WEB-DL.x264-FGT]
Видео: 720x302 at 23.976 fps, x264, ~1100 kbps, 0.211 bpp
Аудио: AAC, 2 ch, ~96 kbps - | Русский | -
Формат субтитров: softsub (SRT)

***Релиз от:-=DoMiNo=-

M/I
General
Complete name : Ava.2020.WEB-DL.x264-FGT.mkv
Format : Matroska
Format version : Version 4
File size : 832 MiB
Duration : 1 h 37 min
Overall bit rate : 1 197 kb/s
Movie name : Агент Ева / Ava (2020) / Ava.2020.WEB-DL.x264-FGT
Encoded date : UTC 2020-08-24 18:00:13
Writing application : mkvmerge v49.0.0 ('Sick Of Losing Soulmates') 64-bit
Writing library : libebml v1.4.0 + libmatroska v1.6.1
Cover : Yes
Attachments : Cover.jpg / Cover 2.jpg

Video
ID : 1
Format : AVC
Format/Info : Advanced Video Codec
Format profile : [email protected]
Format settings : CABAC / 5 Ref Frames
Format settings, CABAC : Yes
Format settings, Reference : 5 frames
Codec ID : V_MPEG4/ISO/AVC
Duration : 1 h 37 min
Bit rate : 1 100 kb/s
Width : 720 pixels
Height : 302 pixels
Display aspect ratio : 2.40:1
Original display aspect rat : 2.40:1
Frame rate mode : Constant
Frame rate : 23.976 (24000/1001) FPS
Color space : YUV
Chroma subsampling : 4:2:0
Bit depth : 8 bits
Scan type : Progressive
Bits/(Pixel*Frame) : 0.211
Stream size : 764 MiB (92%)
Writing library : x264 core 152 r2851M ba24899
Encoding settings : cabac=1 / ref=5 / deblock=1:-1:-1 / analyse=0x3:0x113 / me=umh / subme=9 / psy=1 / psy_rd=1.00:0.15 / mixed_ref=1 / me_range=16 / chroma_me=1 / trellis=2 / 8x8dct=1 / cqm=0 / deadzone=21,11 / fast_pskip=1 / chroma_qp_offset=-3 / threads=16 / lookahead_threads=1 / sliced_threads=0 / nr=0 / decimate=1 / interlaced=0 / bluray_compat=0 / constrained_intra=0 / bframes=3 / b_pyramid=2 / b_adapt=2 / b_bias=0 / direct=3 / weightb=1 / open_gop=0 / weightp=2 / keyint=250 / keyint_min=23 / scenecut=40 / intra_refresh=0 / rc_lookahead=50 / rc=2pass / mbtree=1 / bitrate=1100 / ratetol=1.0 / qcomp=0.60 / qpmin=0 / qpmax=69 / qpstep=4 / cplxblur=20.0 / qblur=0.5 / ip_ratio=1.40 / aq=1:1.00
Language : English
Default : Yes
Forced : No

Audio
ID : 2
Format : AAC LC SBR
Format/Info : Advanced Audio Codec Low Complexity with Spectral Band Replication
Commercial name : HE-AAC
Format settings : Explicit
Codec ID : A_AAC-2
Duration : 1 h 37 min
Bit rate : 96.0 kb/s
Channel(s) : 2 channels
Channel layout : L R
Sampling rate : 48.0 kHz
Frame rate : 23.438 FPS (2048 SPF)
Compression mode : Lossy
Stream size : 65.8 MiB (8%)
Title : MVO_[HDR]
Language : Russian
Default : Yes
Forced : No

Text #1
ID : 3
Format : UTF-8
Codec ID : S_TEXT/UTF8
Codec ID/Info : UTF-8 Plain Text
Duration : 54 min 4 s
Bit rate : 9 b/s
Count of elements : 83
Stream size : 3.93 KiB (0%)
Title : forced
Language : Russian
Default : Yes
Forced : No

Text #2
ID : 4
Format : UTF-8
Codec ID : S_TEXT/UTF8
Codec ID/Info : UTF-8 Plain Text
Duration : 23 min 15 s
Bit rate : 2 b/s
Count of elements : 18
Stream size : 458 Bytes (0%)
Title : forced
Language : English
Default : No
Forced : No

Text #3
ID : 5
Format : UTF-8
Codec ID : S_TEXT/UTF8
Codec ID/Info : UTF-8 Plain Text
Duration : 1 h 31 min
Bit rate : 45 b/s
Count of elements : 1131
Stream size : 30.4 KiB (0%)
Default : No
Forced : No
Скриншоты
 

Вложения

  • 33,6 KB Просмотры: 0
    Личеров 0
    Сидеров 0
    Файлов 1
    Объем 831,6 MB

Привет!

Мы группа людей которые решили помочь другим в решении их проблем, а так же пользователям с поиском самых свежих и качественных инфопродуктов. За 4 с небольшим месяца мы создали этот форум на который заходят ежедневно тысячи человек и посещаемость постоянно растёт. Мы создали панель лицензирования для защиты PHP скриптов от воровства и SEO панель для мониторинга наших сайтов и выбора верной стратегии их развития. Мы надеемся что то что мы создали пригодится Вам и возможно Вы поможете нам развиваться и совершенствоваться вместе с Вами.

Статистика форума

Темы
406.648
Сообщения
465.115
Пользователи
84.620
Новый пользователь
Pestone79

Приложения форума для iOS и Android


У ркн там нет власти ;)
Приватные разговоры
Помощь Пользователи
    Вы не присоединились ни к одной комнате.