За последнюю неделю опубликовано 99 новых материалов.
Инструкция новичку Путеводитель по форуму Прокси для Telegram Показать подсказки , это бомба!

Скачать Афросамурай: Воскрешение / Afro Samurai: Resurrection (2009) BDRip 480p бесплатно через торрент

  • Поучаствуй (в качестве покупателя) в любых пяти совместных покупках (кроме завершённых и "Моментальных") и получи группу "Новичок" навсегда -> ссылка на раздел
  • Получай до 480 рублей за каждого приглашенного пользователя!
    представляем Вам очередное расширение партнерской программы, подробности описаны тут -> ссылка
  • 90% материалов доступно к скачиванию после простой регистрации!
    Если же ты хочешь скачивать материалы без требования оставлять отзывы то получи группу "Новичок", 10 способов повышения описаны тут -> ссылка
  • К сожалению количество битых ссылок растет и мы уже не можем их оперативно восстанавливать поэтому просим помощи у каждого нашего пользователя.
    С сегодняшнего дня, за каждую восстановленную ссылку мы заплатим Вам.
    Подробнее тут -> ссылка
  • Перенесем твои заслуги с другого ресурса!
    Мы понимаем как сложно прокачивать аккаунты на форумах, вроде раскачал аккаунт, а тут появляется ресурс в 100 раз круче но тоже с системой прокачки и снова качать аккаунт...
    Предлагаем вам перенести Ваши заслуги на другом подобном ресурсе к нам.
    Подробности описаны тут -> ссылка
  • Вы можете получать по 2.5% с каждой покупки и продажи на маркете! Подробности в теме Партнёрская программа

Torrent_Bot

Торрент-Бот
Бот форума
4 Окт 2016
124
96
20

«There's no such thing as final vengeance!»

Информация о фильме
Название: Афросамурай: Воскрешение
Оригинальное название: Afro Samurai: Resurrection
Год выхода: 2009
Жанр: самурайский боевик
Режиссер: Кидзаки Фуминори
В ролях: Сэмюэл Л. Джексон, Люси Лью, Марк Хэмилл, Грэй ДеЛисл, Дейв Уиттенберг, Лайам О’Брайэн, Захари Гордан, Юрий Ловенталь, Джефф Беннетт, Стивен Блум

Описание: Отомстив за отца, Афро решил пожить мирно. Но разве оставят в покое сильнейшего воина на свете?! Конечно нет! Вскоре легендарного мастера насильно втягивает в игру красивая и смертоносная женщина из его прошлого. Окончательной мести не существует! Сражения вокруг повязки N1 должны продолжаться!

71e9ca207bc7725174180180318b9761.gif15fbf3edb6e2b1fcfb2657dbd882f24b.gif

Страна: США, Япония
Продолжительность: 01:40:32
Перевод: Профессиональный (многоголосый закадровый) 2x2
Любительский (одноголосный закадровый) Гаврилов
Любительский (многоголосый закадровый) MCA

Файл
Кодек: x264
Субтитры: Русские
Качество: BDRip 480p
Видео: 848x480 23.98fps, 1 550 Kbps
Аудио #1: Русская дорожка 2x2: Dolby AC3, 48 kHz, 192 kbps, stereo
Аудио #2: Русская дорожка Гаврилов: Dolby AC3, 48 kHz, 384 kbps, stereo, 6ch
Аудио #3: Русская дорожка MCA: Dolby AC3, 48 kHz, 384 kbps, stereo, 6ch
Аудио #4: Оригинал: AAC, 48 kHz, 384 Kbps, stereo, 6ch



MI
General
Unique ID : 175424879697483555772131634843348407295 (0x83F99A5657D5A2C789FD90EBE74893FF)
Complete name : S:Afro Samurai. Resurrection (Director's Cut) (2009)(BDRip)(2x2)Afro Samurai. Resurrection (Director's Cut) (2009)(BDRip)(2x2)(480p)(x264).mkv
Format : Matroska
File size : 2.03 GiB
Duration : 1h 40mn
Overall bit rate : 2 886 Kbps
Encoded date : UTC 2011-08-08 20:28:26
Writing application : mkvmerge v4.0.0 ('The Stars were mine') сборка от Jun 6 2010 16:18:42
Writing library : libebml v1.0.0 + libmatroska v1.0.0

Video
ID : 1
Format : AVC
Format/Info : Advanced Video Codec
Format profile : High@L3.1
Format settings, CABAC : Yes
Format settings, ReFrames : 8 frames
Format settings, GOP : M=5, N=6
Codec ID : V_MPEG4/ISO/AVC
Duration : 1h 40mn
Nominal bit rate : 1 550 Kbps
Width : 848 pixels
Height : 480 pixels
Display aspect ratio : 16:9
Original display aspect ratio : 16:9
Frame rate : 23.976 fps
Color space : YUV
Chroma subsampling : 4:2:0
Bit depth : 8 bits
Scan type : Progressive
Bits/(Pixel*Frame) : 0.159
Title : x264
Writing library : x264 core 67 r1127M 8d82fec
Encoding settings : cabac=1 / ref=8 / deblock=1:1:1 / analyse=0x3:0x133 / me=umh / subme=7 / psy_rd=0.6:0.0 / mixed_ref=1 / me_range=16 / chroma_me=1 / trellis=2 / 8x8dct=1 / cqm=0 / deadzone=21,11 / chroma_qp_offset=-2 / threads=3 / nr=0 / decimate=1 / mbaff=0 / bframes=16 / b_pyramid=1 / b_adapt=1 / b_bias=0 / direct=3 / wpredb=0 / keyint=250 / keyint_min=25 / scenecut=40 / rc=2pass / bitrate=1550 / ratetol=1.0 / qcomp=0.60 / qpmin=10 / qpmax=51 / qpstep=4 / cplxblur=20.0 / qblur=0.5 / ip_ratio=1.40 / pb_ratio=1.30 / aq=0
Language : English

Audio #1
ID : 2
Format : AC-3
Format/Info : Audio Coding 3
Mode extension : CM (complete main)
Codec ID : A_AC3
Duration : 1h 40mn
Bit rate mode : Constant
Bit rate : 192 Kbps
Channel(s) : 2 channels
Channel positions : Front: L R
Sampling rate : 48.0 KHz
Bit depth : 16 bits
Compression mode : Lossy
Stream size : 138 MiB (7%)
Title : [2x2]
Language : Russian

Audio #2
ID : 3
Format : AC-3
Format/Info : Audio Coding 3
Mode extension : CM (complete main)
Codec ID : A_AC3
Duration : 1h 40mn
Bit rate mode : Constant
Bit rate : 384 Kbps
Channel(s) : 6 channels
Channel positions : Front: L C R, Side: L R, LFE
Sampling rate : 48.0 KHz
Bit depth : 16 bits
Compression mode : Lossy
Stream size : 276 MiB (13%)
Title : [Gavrilov]
Language : Russian

Audio #3
ID : 4
Format : AC-3
Format/Info : Audio Coding 3
Mode extension : CM (complete main)
Codec ID : A_AC3
Duration : 1h 40mn
Bit rate mode : Constant
Bit rate : 384 Kbps
Channel(s) : 6 channels
Channel positions : Front: L C R, Side: L R, LFE
Sampling rate : 48.0 KHz
Bit depth : 16 bits
Compression mode : Lossy
Stream size : 276 MiB (13%)
Title : [MCA]
Language : Russian

Audio #4
ID : 5
Format : AAC
Format/Info : Advanced Audio Codec
Format profile : LC
Codec ID : A_AAC
Duration : 1h 40mn
Channel(s) : 6 channels
Channel positions : Front: L C R, Side: L R, LFE
Sampling rate : 48.0 KHz
Compression mode : Lossy
Title : [Original]
Language : English

Text #1
ID : 6
Format : ASS
Codec ID : S_TEXT/ASS
Codec ID/Info : Advanced Sub Station Alpha
Compression mode : Lossless
Title : ASS (X-Ray Fansubs)
Language : Russian

Text #2
ID : 7
Format : ASS
Codec ID : S_TEXT/ASS
Codec ID/Info : Advanced Sub Station Alpha
Compression mode : Lossless
Title : ASS (Adamant)
Language : Russian
Скриншоты
 

Вложения

Ваш e-mail не будет опубликован. Он потребуется для подтверждения Вашего поста.
Оформление текста Нажмите «Ввод», чтобы отправить ответ.

Привет!

Мы группа людей которые решили помочь другим в решении их проблем, а так же пользователям с поиском самых свежих и качественных инфопродуктов. За 4 с небольшим месяца мы создали этот форум на который заходят ежедневно тысячи человек и посещаемость постоянно растёт. Мы создали панель лицензирования для защиты PHP скриптов от воровства и SEO панель для мониторинга наших сайтов и выбора верной стратегии их развития. Мы надеемся что то что мы создали пригодится Вам и возможно Вы поможете нам развиваться и совершенствоваться вместе с Вами.

Статистика форума

Темы
378.777
Сообщения
418.228
Пользователи
50.108
Новый пользователь
zep12

Приложения форума для iOS и Android


У ркн там нет власти ;)
Приватные разговоры
Помощь Пользователи
    Вы не присоединились ни к одной комнате.