За последнюю неделю опубликовано 49 новых материалов.
Инструкция новичку Путеводитель по форуму Прокси для Telegram Показать подсказки , это бомба!

Скачать Адская команда / Матч-реванш / Чертовы футболисты / Teufelskicker (2010) BDRip 1080p | D, L1 бесплатно через торрент

  • Поучаствуй (в качестве покупателя) в любых пяти совместных покупках (кроме завершённых и "Моментальных") и получи группу "Новичок" навсегда -> ссылка на раздел
  • Получай до 480 рублей за каждого приглашенного пользователя!
    представляем Вам очередное расширение партнерской программы, подробности описаны тут -> ссылка
  • 90% материалов доступно к скачиванию после простой регистрации!
    Если же ты хочешь скачивать материалы без требования оставлять отзывы то получи группу "Новичок", 10 способов повышения описаны тут -> ссылка
  • К сожалению количество битых ссылок растет и мы уже не можем их оперативно восстанавливать поэтому просим помощи у каждого нашего пользователя.
    С сегодняшнего дня, за каждую восстановленную ссылку мы заплатим Вам.
    Подробнее тут -> ссылка
  • Перенесем твои заслуги с другого ресурса!
    Мы понимаем как сложно прокачивать аккаунты на форумах, вроде раскачал аккаунт, а тут появляется ресурс в 100 раз круче но тоже с системой прокачки и снова качать аккаунт...
    Предлагаем вам перенести Ваши заслуги на другом подобном ресурсе к нам.
    Подробности описаны тут -> ссылка
  • Вы можете получать по 2.5% с каждой покупки и продажи на маркете! Подробности в теме Партнёрская программа
Если Вы не хотите скачивать, Вы всегда можетепосмотретьонлайн, просто нажмите кнопку ниже :

Открыть плеер

Torrent_Bot

Торрент-Бот
Бот форума
4 Окт 2016
93
160
20



Информация о фильме
Название: Адская команда / Матч-реванш / Чертовы футболисты
Оригинальное название: Teufelskicker
Год выхода: 2010
Жанр: комедия, семейный, спорт
Режиссер: Гранц Хенман
В ролях: Диана Амфт, Бенно Фюрман, Райнер Шёне, Армин Роде, Катрин Флемминг, Генри Хорн, Козима Хенман, Дарио Флик, Марвин Шлэттер, Каан Айдогду, Яссин Гурар, Сэмми Шуритцел, Тим Трегер, Бен Бретерниц, Финн Элерт, Тис Элерт, Александр Краузе

О фильме:
Юный Мориц влюблен в футбол и играет в команде, которую тренирует его отец. Но после размолвки родителей мальчик вместе с мамой переезжает жить в городок к дедушке. Столкнувшись в местном футбольном клубе со своим злейшим врагом и соперником по турниру Марком, Мориц решает собрать свою футбольную команду. Ведь новые школьные знакомые Морица: братья Мехмет и Энеш, Нико, сестра Марка Катрина и загадочный Алекс, увлекающийся со своими приятелями паркуром, — так же страстно любят футбол, как и Мориц.



Производство: Германия / UFA Fiction, Phoenix Film, Torus GmbH
Продолжительность: 01:51:12
Перевод: профессиональный дубляж (Карусель), любительский одноголосый (Вячеслав Прошин)

*** У нас на ТВ из фильма было вырезано несколько сцен, на которые в дорожке с дубляжом сделаны вставки из одноголосой озвучки

Файл
Качество: BDRip 1080p
Формат: MKV
Видео: MPEG-4 AVC, 1920x1040 (1.85:1), 24.000 fps, 8148 kbps, 0.17 bit/pixel
Аудио #1: русский, AC3 2.0, 48 kHz, 192 kbps | дублированный
Аудио #2: русский, AC3 5.1, 48 kHz, 448 kbps | любительский одноголосый
Аудио #3: немецкий, DTS 5.1, 48 kHz, 1509 kbps
Субтитры: русские форсированные (на песню) + полные (prostotak), английские вшитые отключаемые

MediaInfo
Общее
Уникальный идентификатор : 209539359380596564008192664782723877409 (0x9DA3D00B86CADF1796C9AA66069C0A21)
Полное имя : Teufelskicker.2010.BDRip.1080p.x264.mkv
Формат : Matroska
Версия формата : Version 4
Размер файла : 8,16 Гбайт
Продолжительность : 1 ч. 51 м.
Общий поток : 10,5 Мбит/сек
Дата кодирования : UTC 2020-07-07 14:47:24
Программа кодирования : mkvmerge v7.9.0 ('Birds') 64bit
Библиотека кодирования : libebml v1.3.1 + libmatroska v1.4.2

Видео
Идентификатор : 1
Формат : AVC
Формат/Информация : Advanced Video Codec
Профиль формата : [email protected]
Настройки формата : CABAC / 4 Ref Frames
Параметр CABAC формата : Да
Параметр RefFrames формата : 4 кадра
Идентификатор кодека : V_MPEG4/ISO/AVC
Продолжительность : 1 ч. 51 м.
Битрейт : 8 148 Кбит/сек
Ширина : 1 920 пикселей
Высота : 1 040 пикселей
Соотношение сторон : 1,85:1
Режим частоты кадров : Постоянный
Частота кадров : 24,000 кадра/сек
Цветовое пространство : YUV
Субдискретизация насыщенности : 4:2:0
Битовая глубина : 8 бит
Тип развёртки : Прогрессивная
Бит/(Пиксели*Кадры) : 0.170
Размер потока : 6,33 Гбайт (78%)
Библиотека кодирования : x264 core 104 r1703 cd21d05
Настройки программы : cabac=1 / ref=4 / deblock=1:0:0 / analyse=0x3:0x133 / me=umh / subme=7 / psy=1 / psy_rd=1.00:0.00 / mixed_ref=1 / me_range=16 / chroma_me=1 / trellis=1 / 8x8dct=1 / cqm=0 / deadzone=21,11 / fast_pskip=0 / chroma_qp_offset=-2 / threads=3 / sliced_threads=0 / nr=0 / decimate=1 / interlaced=0 / constrained_intra=0 / bframes=3 / b_pyramid=2 / b_adapt=1 / b_bias=0 / direct=3 / weightb=1 / open_gop=0 / weightp=2 / keyint=250 / keyint_min=24 / scenecut=40 / intra_refresh=0 / rc_lookahead=40 / rc=crf / mbtree=1 / crf=20.0 / qcomp=0.60 / qpmin=10 / qpmax=51 / qpstep=4 / ip_ratio=1.40 / aq=1:1.00
Default : Да
Forced : Нет
Duration_Source : General_Duration

Аудио #1
Идентификатор : 2
Формат : AC-3
Формат/Информация : Audio Coding 3
Коммерческое название : Dolby Digital
Идентификатор кодека : A_AC3
Продолжительность : 1 ч. 51 м.
Вид битрейта : Постоянный
Битрейт : 192 Кбит/сек
Каналы : 2 канала
Channel layout : L R
Частота : 48,0 КГц
Частота кадров : 31,250 кадров/сек (1536 SPF)
Метод сжатия : С потерями
Размер потока : 153 Мбайт (2%)
Заголовок : Dub
Язык : Russian
Service kind : Complete Main
Default : Да
Forced : Нет
Duration_Source : General_Duration

Аудио #2
Идентификатор : 3
Формат : AC-3
Формат/Информация : Audio Coding 3
Коммерческое название : Dolby Digital
Идентификатор кодека : A_AC3
Продолжительность : 1 ч. 51 м.
Вид битрейта : Постоянный
Битрейт : 448 Кбит/сек
Каналы : 6 каналов
Channel layout : L R C LFE Ls Rs
Частота : 48,0 КГц
Частота кадров : 31,250 кадров/сек (1536 SPF)
Метод сжатия : С потерями
Размер потока : 356 Мбайт (4%)
Заголовок : VO (Вячеслав Прошин)
Язык : Russian
Service kind : Complete Main
Default : Нет
Forced : Нет
Duration_Source : General_Duration

Аудио #3
Идентификатор : 4
Формат : DTS
Формат/Информация : Digital Theater Systems
Идентификатор кодека : A_DTS
Продолжительность : 1 ч. 51 м.
Вид битрейта : Постоянный
Битрейт : 1 509 Кбит/сек
Каналы : 6 каналов
Channel layout : C L R Ls Rs LFE
Частота : 48,0 КГц
Частота кадров : 93,750 кадра/сек (512 SPF)
Битовая глубина : 24 бит
Метод сжатия : С потерями
Размер потока : 1,17 Гбайт (14%)
Язык : German
Default : Нет
Forced : Нет
Duration_Source : General_Duration

Текст #1
Идентификатор : 5
Формат : UTF-8
Идентификатор кодека : S_TEXT/UTF8
Идентификатор кодека/Информация : UTF-8 Plain Text
Заголовок : Forced (only song's)
Язык : Russian
Default : Да
Forced : Нет

Текст #2
Идентификатор : 6
Формат : UTF-8
Идентификатор кодека : S_TEXT/UTF8
Идентификатор кодека/Информация : UTF-8 Plain Text
Заголовок : Full (prostotak)
Язык : Russian
Default : Нет
Forced : Нет

Текст #3
Идентификатор : 7
Формат : UTF-8
Идентификатор кодека : S_TEXT/UTF8
Идентификатор кодека/Информация : UTF-8 Plain Text
Язык : English
Default : Нет
Forced : Нет

Меню
00:00:00.000 : en:00:00:00.000
00:09:02.292 : en:00:09:02.292
00:18:29.583 : en:00:18:29.583
00:26:43.458 : en:00:26:43.458
00:35:08.958 : en:00:35:08.958
00:43:50.375 : en:00:43:50.375
00:54:24.500 : en:00:54:24.500
01:05:08.375 : en:01:05:08.375
01:14:06.375 : en:01:14:06.375
01:22:07.750 : en:01:22:07.750
01:32:09.625 : en:01:32:09.625
01:43:41.000 : en:01:43:41.000
Скриншоты
 

Вложения

  • 21,4 KB Просмотры: 0
    Личеров 0
    Сидеров 0
    Файлов 1
    Объем 8,2 GB

Привет!

Мы группа людей которые решили помочь другим в решении их проблем, а так же пользователям с поиском самых свежих и качественных инфопродуктов. За 4 с небольшим месяца мы создали этот форум на который заходят ежедневно тысячи человек и посещаемость постоянно растёт. Мы создали панель лицензирования для защиты PHP скриптов от воровства и SEO панель для мониторинга наших сайтов и выбора верной стратегии их развития. Мы надеемся что то что мы создали пригодится Вам и возможно Вы поможете нам развиваться и совершенствоваться вместе с Вами.

Статистика форума

Темы
406.640
Сообщения
465.116
Пользователи
84.570
Новый пользователь
Azari666

Приложения форума для iOS и Android


У ркн там нет власти ;)
Приватные разговоры
Помощь Пользователи
    Вы не присоединились ни к одной комнате.