За последнюю неделю опубликовано 49 новых материалов.
Инструкция новичку Путеводитель по форуму Прокси для Telegram Показать подсказки , это бомба!

Скачать Абнер, невидимый пёс / Abner the invisible dog (2013) WEB-DL 720p | A бесплатно через торрент

  • Поучаствуй (в качестве покупателя) в любых пяти совместных покупках (кроме завершённых и "Моментальных") и получи группу "Новичок" навсегда -> ссылка на раздел
  • Получай до 480 рублей за каждого приглашенного пользователя!
    представляем Вам очередное расширение партнерской программы, подробности описаны тут -> ссылка
  • 90% материалов доступно к скачиванию после простой регистрации!
    Если же ты хочешь скачивать материалы без требования оставлять отзывы то получи группу "Новичок", 10 способов повышения описаны тут -> ссылка
  • К сожалению количество битых ссылок растет и мы уже не можем их оперативно восстанавливать поэтому просим помощи у каждого нашего пользователя.
    С сегодняшнего дня, за каждую восстановленную ссылку мы заплатим Вам.
    Подробнее тут -> ссылка
  • Перенесем твои заслуги с другого ресурса!
    Мы понимаем как сложно прокачивать аккаунты на форумах, вроде раскачал аккаунт, а тут появляется ресурс в 100 раз круче но тоже с системой прокачки и снова качать аккаунт...
    Предлагаем вам перенести Ваши заслуги на другом подобном ресурсе к нам.
    Подробности описаны тут -> ссылка
  • Вы можете получать по 2.5% с каждой покупки и продажи на маркете! Подробности в теме Партнёрская программа
Если Вы не хотите скачивать, Вы всегда можетепосмотретьонлайн, просто нажмите кнопку ниже :

Открыть плеер

Torrent_Bot

Торрент-Бот
Бот форума
4 Окт 2016
93
160
20



Информация о фильме
Название: Абнер, невидимый пёс
Оригинальное название: Abner the invisible dog
Год выхода: 2013
Жанр: комедия, семейный
Режиссер: Фред Олен Рэй
В ролях: Дэвид ДеЛуис, Дэвид Чокачи, Дэниэл Зыков, Молли Морген Ламонт, Бен Жиру, Роберт Р. Шафер, Нэнси Салливан, Тед Монте, Дженнифер Келлер, Жак Холлэнд, Джейн Кин, Харлесс Брюс, Крис Бонс, Брайан Нолан

О фильме:
Кевин - тринадцатилетний подросток, по случаю становится владельцем уникального препарата, разработанного в специальной правительственной лаборатории. Чтобы не рисковать собой главный герой решает проверить этот препарат на своей собаке...



Производство: США / Synthetic Filmwerx
Продолжительность: 01:29:22
Перевод: авторский одноголосый (Юрий Сербин)

Файл
Качество: WEB-DL 720p
Формат: MKV
Видео: MPEG-4 AVC, 1280x720 (16:9), 23.976 fps, 4128 kbps, 0.187 bit/pixel
Аудио #1: русский, AC3 5.1, 48 kHz, 448 kbps
Аудио #2: английский, AC3 5.1, 48 kHz, 384 kbps
Субтитры: английские вшитые отключаемые

MediaInfo
Общее
Уникальный идентификатор : 4502810624613468898775338402809343004 (0x36335B43EF60CE4366E309A0E736C1C)
Полное имя : Abner.The.Invisible.Dog.2013.WEB-DL.720p.mkv
Формат : Matroska
Версия формата : Version 4
Размер файла : 3,10 Гбайт
Продолжительность : 1 ч. 29 м.
Общий поток : 4 963 Кбит/сек
Название фильма : Abner, the Invisible Dog (2013)
Дата кодирования : UTC 2020-03-17 15:51:24
Программа кодирования : mkvmerge v37.0.0 ('Leave It') 64-bit
Библиотека кодирования : libebml v1.3.9 + libmatroska v1.5.2

Видео
Идентификатор : 1
Формат : AVC
Формат/Информация : Advanced Video Codec
Профиль формата : [email protected]
Настройки формата : 2 Ref Frames
Параметр CABAC формата : Нет
Параметр RefFrames формата : 2 кадра
Идентификатор кодека : V_MPEG4/ISO/AVC
Продолжительность : 1 ч. 29 м.
Битрейт : 4 128 Кбит/сек
Ширина : 1 280 пикселей
Высота : 720 пикселей
Соотношение сторон : 16:9
Режим частоты кадров : Постоянный
Частота кадров : 23,976 (23976/1000) кадра/сек
Цветовое пространство : YUV
Субдискретизация насыщенности : 4:2:0
Битовая глубина : 8 бит
Тип развёртки : Прогрессивная
Бит/(Пиксели*Кадры) : 0.187
Размер потока : 2,58 Гбайт (83%)
Язык : English
Default : Да
Forced : Нет
Цветовой диапазон : Limited
Основные цвета : BT.709
Характеристики трансфера : BT.709
Коэффициенты матрицы : BT.709

Аудио #1
Идентификатор : 2
Формат : AC-3
Формат/Информация : Audio Coding 3
Коммерческое название : Dolby Digital
Идентификатор кодека : A_AC3
Продолжительность : 1 ч. 29 м.
Вид битрейта : Постоянный
Битрейт : 448 Кбит/сек
Каналы : 6 каналов
Channel layout : L R C LFE Ls Rs
Частота : 48,0 КГц
Частота кадров : 31,250 кадров/сек (1536 SPF)
Метод сжатия : С потерями
Размер потока : 286 Мбайт (9%)
Язык : Russian
Service kind : Complete Main
Default : Нет
Forced : Нет

Аудио #2
Идентификатор : 3
Формат : AC-3
Формат/Информация : Audio Coding 3
Коммерческое название : Dolby Digital
Идентификатор кодека : A_AC3
Продолжительность : 1 ч. 29 м.
Вид битрейта : Постоянный
Битрейт : 384 Кбит/сек
Каналы : 6 каналов
Channel layout : L R C LFE Ls Rs
Частота : 48,0 КГц
Частота кадров : 31,250 кадров/сек (1536 SPF)
Метод сжатия : С потерями
Размер потока : 245 Мбайт (8%)
Заголовок : AC3 5.1
Язык : English
Service kind : Complete Main
Default : Нет
Forced : Нет

Текст #1
Идентификатор : 4
Формат : UTF-8
Идентификатор кодека : S_TEXT/UTF8
Идентификатор кодека/Информация : UTF-8 Plain Text
Продолжительность : 1 ч. 26 м.
Битрейт : 72 бит/сек
Count of elements : 1500
Размер потока : 45,4 Кбайт (0%)
Заголовок : English
Язык : English
Default : Нет
Forced : Нет

Текст #2
Идентификатор : 5
Формат : UTF-8
Идентификатор кодека : S_TEXT/UTF8
Идентификатор кодека/Информация : UTF-8 Plain Text
Продолжительность : 1 ч. 28 м.
Битрейт : 72 бит/сек
Count of elements : 1578
Размер потока : 46,8 Кбайт (0%)
Заголовок : English for the Hearing Impaired
Язык : English
Default : Нет
Forced : Нет

Меню
00:00:00.000 : en:Chapter 1
00:10:49.000 : en:Chapter 2
00:19:22.000 : en:Chapter 3
00:33:06.000 : en:Chapter 4
00:43:14.000 : en:Chapter 5
00:55:15.000 : en:Chapter 6
01:04:36.000 : en:Chapter 7
01:16:02.000 : en:Chapter 8
01:27:05.000 : en:Chapter 9
Скриншоты
 

Вложения

  • 16,5 KB Просмотры: 0
    Личеров 0
    Сидеров 0
    Файлов 1
    Объем 3,1 GB

Привет!

Мы группа людей которые решили помочь другим в решении их проблем, а так же пользователям с поиском самых свежих и качественных инфопродуктов. За 4 с небольшим месяца мы создали этот форум на который заходят ежедневно тысячи человек и посещаемость постоянно растёт. Мы создали панель лицензирования для защиты PHP скриптов от воровства и SEO панель для мониторинга наших сайтов и выбора верной стратегии их развития. Мы надеемся что то что мы создали пригодится Вам и возможно Вы поможете нам развиваться и совершенствоваться вместе с Вами.

Статистика форума

Темы
406.640
Сообщения
465.116
Пользователи
84.573
Новый пользователь
sobolsm

Приложения форума для iOS и Android


У ркн там нет власти ;)
Приватные разговоры
Помощь Пользователи
    Вы не присоединились ни к одной комнате.