За последнюю неделю опубликовано 34 новых материалов.
Инструкция новичку Путеводитель по форуму Прокси для Telegram Показать подсказки , это бомба!

Скачать А потом мы танцевали / And then we danced (2019) WEB-DLRip | L1 бесплатно через торрент

  • Поучаствуй (в качестве покупателя) в любых пяти совместных покупках (кроме завершённых и "Моментальных") и получи группу "Новичок" навсегда -> ссылка на раздел
  • Получай до 480 рублей за каждого приглашенного пользователя!
    представляем Вам очередное расширение партнерской программы, подробности описаны тут -> ссылка
  • 90% материалов доступно к скачиванию после простой регистрации!
    Если же ты хочешь скачивать материалы без требования оставлять отзывы то получи группу "Новичок", 10 способов повышения описаны тут -> ссылка
  • К сожалению количество битых ссылок растет и мы уже не можем их оперативно восстанавливать поэтому просим помощи у каждого нашего пользователя.
    С сегодняшнего дня, за каждую восстановленную ссылку мы заплатим Вам.
    Подробнее тут -> ссылка
  • Перенесем твои заслуги с другого ресурса!
    Мы понимаем как сложно прокачивать аккаунты на форумах, вроде раскачал аккаунт, а тут появляется ресурс в 100 раз круче но тоже с системой прокачки и снова качать аккаунт...
    Предлагаем вам перенести Ваши заслуги на другом подобном ресурсе к нам.
    Подробности описаны тут -> ссылка
  • Вы можете получать по 2.5% с каждой покупки и продажи на маркете! Подробности в теме Партнёрская программа
Если Вы не хотите скачивать, Вы всегда можетепосмотретьонлайн, просто нажмите кнопку ниже :

Открыть плеер

Torrent_Bot

Торрент-Бот
Бот форума
4 Окт 2016
93
160
20



Информация о фильме
Название: А потом мы танцевали
Оригинальное название: And then we danced / და ჩვენ ვიცეკვეთ
Год выхода: 2019
Жанр: драма, мелодрама, хореография, гей-тема
Режиссер: Леван Акин / Levan Akin
В ролях: Леван Гелбахиани (Мераб), Бачи Валишвили (Ираклий), Ана Джавакишвили (Мари), Каха Гогидзе (Алеко), Леван Габрава, Гиорги Церетели, Ана Махарадзе, Нино Габисония, Тамара Бухникашвили, Марика Гогичаишвили, Дачи Бабунашвили, Саба Абашидзе, Гиорги Аладашвили, Сосо Абрамишвили, Эка Мжаванадзе

О фильме:
Мераб с детства танцует в Национальном грузинском ансамбле. Мир парня переворачивается с появлением харизматичного и беспечного Ираклия, который становится его конкурентом в ансамбле и его желанием. Впереди у Мераба борьба за любовь, за самовыражение в танце. Он понимает, что ему надо стать свободным в очень консервативном обществе, и рискует всем.

Награды:
По мнению многих критиков, это лучший ЛГБТ-фильм 2019г и вообще лучший ЛГБТ-фильм на постсоветском пространстве всех времён. О чём свидетельствуют и рейтинги КиноПоиска и IMDb. А также многочисленные награды.
Guldbagge Awards, «Золото́й жук», Шведский институт кинематографии, Швеция, 2020:
Победитель - Лучший фильм, Лучший сценарий (Леван Акин), Лучший актёр (Леван Гелбахиани), Лучшая операторская работа (Lisabi Fridell)
Chicago International Film Festival, Чикаго, США, 2019:
Победитель - Gold Q-Hugo (Леван Акин)
Seville European Film Festival, Севилья, Испания, 2019:
Победитель - Grand Audience Award и Ocaña Award (Леван Акин)
Sarajevo Film Festival, Сараево, Босния и Герцоговина, 2019:
Победитель - Лучший актёр (Леван Гелбахиани)
Montréal Festival of New Cinema, Монреаль, Канада, 2019:
Победитель - Peace Award (Леван Акин)
Valladolid International Film Festival, Вальядолид, Испания, 2019:
Победитель - Лучший актёр (Леван Гелбахиани), Rainbow Spike (Леван Акин)
Minsk International Film Festival “Listapad”, Минск, Беларусь, 2019:
Победитель - Лучший фильм (Леван Акин), Лучший актёр (Леван Гелбахиани)
Odesa International Film Festival, Одесса, Украина, 2019:
Победитель - Лучший фильм (Леван Акин), Лучший актёр (Леван Гелбахиани) {Международная конкурсная программа}
LesGaiCineMad, Madrid International LGBT Film Festival, Мадрид, Испания, 2019:
Победитель - Лучший полнометражный фильм (Леван Акин), Лучший актёр (Леван Гелбахиани)
Czech Gay and Lesbian Film Festival, Чехия, 2019:
Победитель - Лучший фильм (Леван Акин)
NewFest: New York's LGBT Film Festival, Нью-Йорк, США, 2019:
Победитель - Best Narrative Feature (Леван Акин)
Фильм также принимал участие в Международном Каннском кинофестивале (Франция), Melbourne International Film Festival (Австралия), Warsaw International Film Festival (Польша), Zurich Film Festival (Швейцария), Palm Springs International Film Festival (США), Cork International Film Festival (Ирландия) и др.





Страна: Грузия, Швеция, Франция
Продолжительность: 01:53:07
Перевод 1: Любительский одноголосый закадровый (Анатолий Ашмарин)
Перевод 2: Любительский одноголосый закадровый (женский)

Файл
Качество: WEB-DLRip
Формат: AVI
Видео: XviD; 704 x 400 (16:9); 25 кадров/сек; 1642 Кбит/сек
Аудио 1: AC3; 48 КГц; 2 канала; 192 Кбит/сек; L1 (Русский, Анатолий Ашмарин)
Аудио 2: AC3; 48 КГц; 1 канал; 192 Кбит/сек; L1 (Русский, женский, отдельным файлом)
Аудио 3: AC3; 48 КГц; 2 канала; 192 Кбит/сек; Оригинал (Грузинский, отдельным файлом)
Субтитры 1: русские (SRT, отдельным файлом)
Субтитры 2: английские (SRT, отдельным файлом)

Семпл

MediaInfo:
Общее
Формат : AVI
Формат/Информация : Audio Video Interleave
Размер файла : 1,46 Гбайт
Продолжительность : 1 ч. 53 м.
Общий поток : 1843 Кбит/сек
Программа кодирования : VirtualDubMod 1.5.10.3 | www.virtualdub-fr.org || (build 2550/release)
Библиотека кодирования : VirtualDubMod build 2550/release

Видео
Идентификатор : 0
Формат : MPEG-4 Visual
Профиль формата : Advanced [email protected]
Настройки формата : BVOP2 / Custom Matrix
Параметр BVOP формата : 2
Параметр QPel формата : Нет
Параметр GMC формата : Без точки перехода
Параметр матрицы формата : Выборочная
Идентификатор кодека : XVID
Идентификатор кодека/Подсказка : XviD
Продолжительность : 1 ч. 53 м.
Битрейт : 1642 Кбит/сек
Ширина : 704 пикселя
Высота : 400 пикселей
Соотношение сторон : 16:9
Частота кадров : 25,000 кадров/сек
Цветовое пространство : YUV
Субдискретизация насыщенности : 4:2:0
Битовая глубина : 8 бит
Тип развёртки : Прогрессивная
Метод сжатия : С потерями
Бит/(Пиксели*Кадры) : 0.233
Размер потока : 1,30 Гбайт (89%)
Библиотека кодирования : XviD 73

Аудио
Идентификатор : 1
Формат : AC-3
Формат/Информация : Audio Coding 3
Идентификатор кодека : 2000
Продолжительность : 1 ч. 53 м.
Вид битрейта : Постоянный
Битрейт : 192 Кбит/сек
Каналы : 2 канала
Расположение каналов : Front: L R
Частота : 48,0 КГц
Частота кадров : 31,250 кадров/сек (1536 SPF)
Битовая глубина : 16 бит
Метод сжатия : С потерями
Размер потока : 155 Мбайт (10%)
Выравнивание : Разделение по промежуткам
Продолжительность промежутка : 40 мс. (1,00 видеокадр)
Время предзагрузки промежутка : 500 мс.
ServiceKind/Strin : Complete Main




Общее
Формат : AC-3
Формат/Информация : Audio Coding 3
Размер файла : 155 Мбайт
Продолжительность : 1 ч. 53 м.
Режим общего битрейта : Постоянный
Общий поток : 192 Кбит/сек

Аудио
Формат : AC-3
Формат/Информация : Audio Coding 3
Продолжительность : 1 ч. 53 м.
Вид битрейта : Постоянный
Битрейт : 192 Кбит/сек
Каналы : 1 канал
Расположение каналов : Front: C
Частота : 48,0 КГц
Частота кадров : 31,250 кадров/сек (1536 SPF)
Битовая глубина : 16 бит
Метод сжатия : С потерями
Размер потока : 155 Мбайт (100%)
ServiceKind/Strin : Complete Main




Общее
Формат : AC-3
Формат/Информация : Audio Coding 3
Размер файла : 155 Мбайт
Продолжительность : 1 ч. 53 м.
Режим общего битрейта : Постоянный
Общий поток : 192 Кбит/сек

Аудио
Формат : AC-3
Формат/Информация : Audio Coding 3
Продолжительность : 1 ч. 53 м.
Вид битрейта : Постоянный
Битрейт : 192 Кбит/сек
Каналы : 2 канала
Расположение каналов : Front: L R
Частота : 48,0 КГц
Частота кадров : 31,250 кадров/сек (1536 SPF)
Битовая глубина : 16 бит
Метод сжатия : С потерями
Размер потока : 155 Мбайт (100%)
ServiceKind/Strin : Complete Main
Скриншоты
 

Вложения

  • 19 KB Просмотры: 0
    Личеров 0
    Сидеров 0
    Файлов 5
    Объем 1,8 GB

Привет!

Мы группа людей которые решили помочь другим в решении их проблем, а так же пользователям с поиском самых свежих и качественных инфопродуктов. За 4 с небольшим месяца мы создали этот форум на который заходят ежедневно тысячи человек и посещаемость постоянно растёт. Мы создали панель лицензирования для защиты PHP скриптов от воровства и SEO панель для мониторинга наших сайтов и выбора верной стратегии их развития. Мы надеемся что то что мы создали пригодится Вам и возможно Вы поможете нам развиваться и совершенствоваться вместе с Вами.

Статистика форума

Темы
406.601
Сообщения
464.985
Пользователи
84.249
Новый пользователь
52963

Приложения форума для iOS и Android


У ркн там нет власти ;)
Приватные разговоры
Помощь Пользователи
    Вы не присоединились ни к одной комнате.