За последнюю неделю опубликовано 65 новых материалов.
Инструкция новичку Путеводитель по форуму Прокси для Telegram Показать подсказки , это бомба!

Скачать 88 минут / 88 Minutes (2007) BDRip 720p by msltel | P бесплатно через торрент

  • Поучаствуй (в качестве покупателя) в любых пяти совместных покупках (кроме завершённых и "Моментальных") и получи группу "Новичок" навсегда -> ссылка на раздел
  • Получай до 480 рублей за каждого приглашенного пользователя!
    представляем Вам очередное расширение партнерской программы, подробности описаны тут -> ссылка
  • 90% материалов доступно к скачиванию после простой регистрации!
    Если же ты хочешь скачивать материалы без требования оставлять отзывы то получи группу "Новичок", 10 способов повышения описаны тут -> ссылка
  • К сожалению количество битых ссылок растет и мы уже не можем их оперативно восстанавливать поэтому просим помощи у каждого нашего пользователя.
    С сегодняшнего дня, за каждую восстановленную ссылку мы заплатим Вам.
    Подробнее тут -> ссылка
  • Перенесем твои заслуги с другого ресурса!
    Мы понимаем как сложно прокачивать аккаунты на форумах, вроде раскачал аккаунт, а тут появляется ресурс в 100 раз круче но тоже с системой прокачки и снова качать аккаунт...
    Предлагаем вам перенести Ваши заслуги на другом подобном ресурсе к нам.
    Подробности описаны тут -> ссылка
  • Вы можете получать по 2.5% с каждой покупки и продажи на маркете! Подробности в теме Партнёрская программа
Если Вы не хотите скачивать, Вы всегда можетепосмотретьонлайн, просто нажмите кнопку ниже :

Открыть плеер

Torrent_Bot

Торрент-Бот
Бот форума
4 Окт 2016
92
163
20


Название: 88 минут
Оригинальное название: 88 Minutes
Год выпуска: 2007
Жанр:Детектив, драма, триллер
Выпущено: Германия, США, Канада
Режиссер: Джон Эвнет
В ролях: Аль Пачино, Алисия Уитт, Лили Собески, Эми Бреннеман, Уильям Форсайт, Дебора Кэра Ангер, Бенджамин МакКензи, Нил МакДонаф, Лиа Кэрнз, Стивен Мойер, Кристофер Редмэн, Брендан Флетчер, Майкл Экланд, Кристина Коуплэнд, Тэмми Хуи, Мишель Яннай, Пол Кемпбелл, Кэрри Гензел, Хезер Дон, Джулиан Кристофер, Тим Генри, Л. Николь Карранса, Мелинда Кларк, Вики Хуанг, Декстер Белл

О фильме: Главный герой фильма Джек Грэхэм, профессор колледжа, сотрудничает с ФБР, составляя психологические портреты убийц. Однажды Грэхэм помогает посадить на электрический стул серийного убийцу. За несколько часов до казни преступника Джеку звонят и сообщают, что ему осталось жить всего 88 минут. Теперь ему предстоит выяснить, что же всё это значит и насколько эта угроза реальна.

Качество: BDRip 720p
Видео: MPEG4 AVC, 3749 Кбит/с, 1280x544
Аудио: Русский (AC3, 6 ch, 448 Кбит/с), английский (AC3, 6 ch, 640 Кбит/с)
Размер: 3.63 ГБ
Продолжительность: 01:47:29
Перевод: Профессиональный многоголосый

Имеются неименованные главы/чаптеры.

Исходник: Andrxz (Кинозал)

Сравнение с исходником



MediaInfo + Лог х264
Общее
Уникальный идентификатор : 219230783999847454472744857860384320642 (0xA4EE502B7EB250E78B3A4D77477D6C82)
Полное имя : E:Video88.minut.2007.x264.BDRip.720p.mkv
Формат : Matroska
Версия формата : Version 4 / Version 2
Размер файла : 3,63 Гбайт
Продолжительность : 1 ч. 47 м.
Общий поток : 4836 Кбит/сек
Название фильма : 88 минут / 88 Minutes / 2007 / BDRip -- STarankov
Дата кодирования : UTC 2013-11-06 11:32:21
Программа кодирования : mkvmerge v6.4.1 ('Omega Point') built on Sep 16 2013 22:05:10
Библиотека кодирования : libebml v1.3.0 + libmatroska v1.4.1

Видео
Идентификатор : 1
Формат : AVC
Формат/Информация : Advanced Video Codec
Профиль формата : [email protected]
Параметр CABAC формата : Да
Параметр ReFrames формата : 11 кадров
Идентификатор кодека : V_MPEG4/ISO/AVC
Продолжительность : 1 ч. 47 м.
Битрейт : 3749 Кбит/сек
Ширина : 1280 пикселей
Высота : 544 пикселя
Соотношение сторон : 2,35:1
Режим частоты кадров : Постоянный
Частота кадров : 23,976 кадра/сек
Цветовое пространство : YUV
Субдискретизация насыщенности : 4:2:0
Битовая глубина : 8 бит
Тип развёртки : Прогрессивная
Бит/(Пиксели*Кадры) : 0.225
Размер потока : 2,74 Гбайт (76%)
Библиотека кодирования : x264 core 133 r2334 a3ac64b
Настройки программы : cabac=1 / ref=11 / deblock=1:-1:-1 / analyse=0x3:0x113 / me=umh / subme=10 / psy=1 / psy_rd=1.00:0.15 / mixed_ref=1 / me_range=24 / chroma_me=1 / trellis=2 / 8x8dct=1 / cqm=0 / deadzone=21,11 / fast_pskip=0 / chroma_qp_offset=-3 / threads=6 / lookahead_threads=1 / sliced_threads=0 / nr=0 / decimate=0 / interlaced=0 / bluray_compat=0 / constrained_intra=0 / bframes=8 / b_pyramid=2 / b_adapt=2 / b_bias=0 / direct=3 / weightb=1 / open_gop=0 / weightp=2 / keyint=230 / keyint_min=23 / scenecut=40 / intra_refresh=0 / rc_lookahead=40 / rc=2pass / mbtree=0 / bitrate=3749 / ratetol=1.0 / qcomp=0.60 / qpmin=0 / qpmax=69 / qpstep=4 / cplxblur=20.0 / qblur=0.5 / vbv_maxrate=50000 / vbv_bufsize=62500 / nal_hrd=none / ip_ratio=1.40 / pb_ratio=1.30 / aq=1:1.00
Язык : English
Default : Да
Forced : Нет

Аудио #1
Идентификатор : 2
Формат : AC-3
Формат/Информация : Audio Coding 3
Расширение режима : CM (complete main)
Параметр Endianness формата : Big
Идентификатор кодека : A_AC3
Продолжительность : 1 ч. 47 м.
Вид битрейта : Постоянный
Битрейт : 448 Кбит/сек
Каналы : 6 каналов
Расположение каналов : Front: L C R, Side: L R, LFE
Частота : 48,0 КГц
Битовая глубина : 16 бит
Метод сжатия : С потерями
Размер потока : 344 Мбайт (9%)
Заголовок : MVO
Язык : Russian
Default : Да
Forced : Нет

Аудио #2
Идентификатор : 3
Формат : AC-3
Формат/Информация : Audio Coding 3
Расширение режима : CM (complete main)
Параметр Endianness формата : Big
Идентификатор кодека : A_AC3
Продолжительность : 1 ч. 47 м.
Вид битрейта : Постоянный
Битрейт : 640 Кбит/сек
Каналы : 6 каналов
Расположение каналов : Front: L C R, Side: L R, LFE
Частота : 48,0 КГц
Битовая глубина : 16 бит
Метод сжатия : С потерями
Размер потока : 492 Мбайт (13%)
Заголовок : Original
Язык : English
Default : Нет
Forced : Нет

Меню
00:00:00.000 : en:Chapter 01
00:06:04.029 : en:Chapter 02
00:11:27.435 : en:Chapter 03
00:15:46.403 : en:Chapter 04
00:19:28.917 : en:Chapter 05
00:24:08.447 : en:Chapter 06
00:30:23.071 : en:Chapter 07
00:36:40.614 : en:Chapter 08
00:44:31.460 : en:Chapter 09
00:57:58.349 : en:Chapter 10
01:05:37.558 : en:Chapter 11
01:14:51.403 : en:Chapter 12
01:19:54.539 : en:Chapter 13
01:26:22.010 : en:Chapter 14
01:31:50.755 : en:Chapter 15
01:38:48.255 : en:Chapter 16

---[Information] [06.11.2013 6:09:36] avs [info]: 1280x544p 1:1 @ 24000/1001 fps (cfr)
---[Information] [06.11.2013 6:09:36] x264 [info]: using SAR=1/1
---[Information] [06.11.2013 6:09:36] x264 [info]: using cpu capabilities: MMX2 SSE2Fast SSSE3 SSE4.2
---[Information] [06.11.2013 6:09:36] x264 [info]: profile High, level 4.1
---[Information] [06.11.2013 14:01:27] x264 [info]: frame I:1317 Avg QP:17.89 size: 97861
---[Information] [06.11.2013 14:01:27] x264 [info]: frame P:32290 Avg QP:20.52 size: 37500
---[Information] [06.11.2013 14:01:27] x264 [info]: frame B:121026 Avg QP:22.16 size: 13882
---[Information] [06.11.2013 14:01:27] x264 [info]: consecutive B-frames: 2.1% 3.7% 7.2% 12.2% 12.3% 48.2% 7.8% 1.7% 4.9%
---[Information] [06.11.2013 14:01:27] x264 [info]: mb I I16..4: 22.4% 66.3% 11.3%
---[Information] [06.11.2013 14:01:27] x264 [info]: mb P I16..4: 1.8% 17.8% 0.8% P16..4: 38.1% 22.7% 11.5% 0.0% 0.0% skip: 7.3%
---[Information] [06.11.2013 14:01:27] x264 [info]: mb B I16..4: 0.1% 1.6% 0.0% B16..8: 45.9% 10.3% 3.0% direct: 6.0% skip:33.1% L0:46.7% L1:48.4% BI: 4.9%
---[Information] [06.11.2013 14:01:27] x264 [info]: 8x8 transform intra:86.0% inter:63.6%
---[Information] [06.11.2013 14:01:27] x264 [info]: direct mvs spatial:98.7% temporal:1.3%
---[Information] [06.11.2013 14:01:27] x264 [info]: coded y,uvDC,uvAC intra: 94.8% 78.9% 49.8% inter: 29.5% 21.6% 5.7%
---[Information] [06.11.2013 14:01:27] x264 [info]: i16 v,h,dc,p: 25% 10% 30% 35%
---[Information] [06.11.2013 14:01:27] x264 [info]: i8 v,h,dc,ddl,ddr,vr,hd,vl,hu: 7% 7% 12% 11% 14% 13% 13% 11% 13%
---[Information] [06.11.2013 14:01:27] x264 [info]: i4 v,h,dc,ddl,ddr,vr,hd,vl,hu: 10% 9% 4% 9% 15% 15% 14% 12% 13%
---[Information] [06.11.2013 14:01:27] x264 [info]: i8c dc,h,v,p: 43% 24% 19% 14%
---[Information] [06.11.2013 14:01:27] x264 [info]: Weighted P-Frames: Y:3.7% UV:2.6%
---[Information] [06.11.2013 14:01:27] x264 [info]: ref P L0: 42.6% 9.8% 19.6% 6.5% 6.4% 4.0% 4.0% 1.8% 2.0% 1.4% 1.6% 0.2% 0.0%
---[Information] [06.11.2013 14:01:27] x264 [info]: ref B L0: 60.2% 15.3% 8.6% 4.8% 3.4% 3.0% 2.2% 1.5% 0.8% 0.3%
---[Information] [06.11.2013 14:01:27] x264 [info]: ref B L1: 89.9% 10.1%
---[Information] [06.11.2013 14:01:27] x264 [info]: kb/s:3745.88
---[Information] [06.11.2013 14:01:27] encoded 154633 frames, 5.46 fps, 3745.88 kb/s
--[Information] [06.11.2013 14:01:31] Final statistics
---[Information] [06.11.2013 14:01:31] Video Bitrate Desired: 3749 kbit/s
---[Information] [06.11.2013 14:01:31] Video Bitrate Obtained (approximate): 3747 kbit/s
--[Information] [06.11.2013 14:01:31] MediaInfo
---[Information] File: E:Rip88.minut.2007.x264.BDRip88.minut.2007.x264.BDRip.720p.mkv
Скриншоты

 

Вложения

  • 19,2 KB Просмотры: 0
    Личеров 0
    Сидеров 0
    Файлов 1
    Объем 3,6 GB

Привет!

Мы группа людей которые решили помочь другим в решении их проблем, а так же пользователям с поиском самых свежих и качественных инфопродуктов. За 4 с небольшим месяца мы создали этот форум на который заходят ежедневно тысячи человек и посещаемость постоянно растёт. Мы создали панель лицензирования для защиты PHP скриптов от воровства и SEO панель для мониторинга наших сайтов и выбора верной стратегии их развития. Мы надеемся что то что мы создали пригодится Вам и возможно Вы поможете нам развиваться и совершенствоваться вместе с Вами.

Статистика форума

Темы
406.674
Сообщения
465.119
Пользователи
84.731
Новый пользователь
LianSel

Приложения форума для iOS и Android


У ркн там нет власти ;)
Приватные разговоры
Помощь Пользователи
    Вы не присоединились ни к одной комнате.