За последнюю неделю опубликовано 195 новых материалов.
Инструкция новичку Путеводитель по форуму Прокси для Telegram Показать подсказки , это бомба!

Скачать 8 голов в одной сумке / 8 Heads in a Duffel Bag (1997) BDRip 1080p от Переулка Переводмана | P2, A бесплатно через торрент

  • Поучаствуй (в качестве покупателя) в любых пяти совместных покупках (кроме завершённых и "Моментальных") и получи группу "Новичок" навсегда -> ссылка на раздел
  • Получай до 480 рублей за каждого приглашенного пользователя!
    представляем Вам очередное расширение партнерской программы, подробности описаны тут -> ссылка
  • 90% материалов доступно к скачиванию после простой регистрации!
    Если же ты хочешь скачивать материалы без требования оставлять отзывы то получи группу "Новичок", 10 способов повышения описаны тут -> ссылка
  • К сожалению количество битых ссылок растет и мы уже не можем их оперативно восстанавливать поэтому просим помощи у каждого нашего пользователя.
    С сегодняшнего дня, за каждую восстановленную ссылку мы заплатим Вам.
    Подробнее тут -> ссылка
  • Перенесем твои заслуги с другого ресурса!
    Мы понимаем как сложно прокачивать аккаунты на форумах, вроде раскачал аккаунт, а тут появляется ресурс в 100 раз круче но тоже с системой прокачки и снова качать аккаунт...
    Предлагаем вам перенести Ваши заслуги на другом подобном ресурсе к нам.
    Подробности описаны тут -> ссылка
  • Вы можете получать по 2.5% с каждой покупки и продажи на маркете! Подробности в теме Партнёрская программа
Если Вы не хотите скачивать, Вы всегда можетепосмотретьонлайн, просто нажмите кнопку ниже :

Открыть плеер

Torrent_Bot

Торрент-Бот
Бот форума
4 Окт 2016
124
93
20

Название: 8 голов в одной сумке
Оригинальное название: 8 Heads in a Duffel Bag
Год выхода: 1997

Страна: США, Великобритания
Студия: Orion Pictures, Rank Organisation
Продолжительность: 01:35:15
Жанр: комедия, криминал

Режиссер: Том Шульман
В ролях: Джо Пеши, Кристи Суонсон, Дэвид Спейд, Джордж Хэмилтон, Дайан Кэннон, Энди Комо, Тодд Луисо, Энтони Мангано, Джо Басиле, Эрнестин Мерсер, ...

Перевод:
- Профессиональный (двуголосый, закадровый) Петр Иващенко и Инна Королева
- Авторский (одноголосый, закадровый) Горчаков Василий Овидиевич
- Авторский (одноголосый, закадровый) Котов Вячеслав Олегович

О фильме: Томми Спинелли — наемный убийца, работающий на мафию. Убив по заказу восемь человек на тихоокеанском побережье Америки, он должен доставить их головы в Нью — Йорк, чтобы показать заказчику.
В аэропорту происходит классическая путаница с багажом, и сумка с головами попадает в руки влюбленной пары. Мафия дает Спинелли два дня на то, чтобы он нашел пропажу. Томми вынужден мчаться за влюбленными и своей сумкой в Мехико…



Кодек: x264
Качество: BDRip 1080p
Видео: 1920x1012, 12000 kbps, 23,976 fps
Аудио #1: AC-3, 2 ch, 192 kbps (Rus) - DVO Петр Иващенко (Гланц) и Инна Королева
Аудио #2: AC-3, 2 ch, 192 kbps (Rus) - AVO Горчаков Василий Овидиевич
Аудио #3: AC-3, 6 ch, 448 kbps (Rus) - AVO Котов Вячеслав Олегович (mupoxa)
Аудио #4: DTS, 6 ch, 1509 kbps (Eng)
Субтитры: английские

Дополнительная информация
За исходник спасибо - Spiellberg
Перевод и озвучка Вечеслава Котова доступны благодаря Переулку Переводмана и - Pr0peLLer
Сведение с голосом - Переводман
MediaInfo
x264 [info]: frame I:1051 Avg QP:15.48 size:202648
x264 [info]: frame P:26684 Avg QP:17.87 size: 99081
x264 [info]: frame B:109289 Avg QP:19.64 size: 52248
x264 [info]: consecutive B-frames: 1.3% 1.4% 6.6% 11.4% 14.4% 52.3% 5.5% 2.8% 1.5% 1.0% 0.6% 0.6% 0.4%

Общее
Уникальный идентификатор : 225050452707883754866126108523124155426 (0xA94F23FD7F23785CB8B98A029A7EE422)
Полное имя : 8 голов в одной сумке (8 Heads in a Duffel Bag) 1997 BDRip 1080p.mkv
Формат : Matroska
Версия формата : Version 2
Размер файла : 9,54 Гбайт
Продолжительность : 1 ч. 35 м.
Общий поток : 14,3 Мбит/сек
Дата кодирования : UTC 2020-01-22 14:43:58
Программа кодирования : mkvmerge v4.0.0 ('The Stars were mine') сборка от Jun 6 2010 16:18:42
Библиотека кодирования : libebml v1.0.0 + libmatroska v1.0.0

Видео
Идентификатор : 1
Формат : AVC
Формат/Информация : Advanced Video Codec
Профиль формата : High@L4.1
Параметр CABAC формата : Да
Параметр ReFrames формата : 4 кадра
Идентификатор кодека : V_MPEG4/ISO/AVC
Продолжительность : 1 ч. 35 м.
Битрейт : 12,0 Мбит/сек
Ширина : 1920 пикселей
Высота : 1012 пикселей
Соотношение сторон : 1,897
Режим частоты кадров : Постоянный
Частота кадров : 23,976 (24000/1001) кадра/сек
Цветовое пространство : YUV
Субдискретизация насыщенности : 4:2:0
Битовая глубина : 8 бит
Тип развёртки : Прогрессивная
Бит/(Пиксели*Кадры) : 0.258
Размер потока : 7,79 Гбайт (82%)
Библиотека кодирования : x264 core 146 r2538 121396c
Настройки программы : cabac=1 / ref=4 / deblock=1:-2:-2 / analyse=0x3:0x133 / me=umh / subme=11 / psy=1 / psy_rd=1.00:0.00 / mixed_ref=1 / me_range=32 / chroma_me=1 / trellis=2 / 8x8dct=1 / cqm=0 / deadzone=21,11 / fast_pskip=0 / chroma_qp_offset=-2 / threads=12 / lookahead_threads=2 / sliced_threads=0 / nr=0 / decimate=0 / interlaced=0 / bluray_compat=0 / constrained_intra=0 / bframes=12 / b_pyramid=2 / b_adapt=2 / b_bias=0 / direct=3 / weightb=1 / open_gop=0 / weightp=2 / keyint=240 / keyint_min=23 / scenecut=40 / intra_refresh=0 / rc=2pass / mbtree=0 / bitrate=12000 / ratetol=1.0 / qcomp=0.60 / qpmin=0 / qpmax=69 / qpstep=4 / cplxblur=20.0 / qblur=0.5 / ip_ratio=1.40 / pb_ratio=1.30 / aq=3:0.80
Язык : English
Default : Нет
Forced : Нет

Аудио #1
Идентификатор : 2
Формат : AC-3
Формат/Информация : Audio Coding 3
Расширение режима : CM (complete main)
Параметр Endianness формата : Big
Идентификатор кодека : A_AC3
Продолжительность : 1 ч. 35 м.
Вид битрейта : Постоянный
Битрейт : 192 Кбит/сек
Каналы : 2 канала
Расположение каналов : Front: L R
Частота : 48,0 КГц
Частота кадров : 31,250 кадров/сек (1536 spf)
Метод сжатия : С потерями
Размер потока : 131 Мбайт (1%)
Заголовок : DVO Петр Иващенко (Гланц) и Инна Королева
Язык : Russian
Default : Нет
Forced : Нет

Аудио #2
Идентификатор : 3
Формат : AC-3
Формат/Информация : Audio Coding 3
Расширение режима : CM (complete main)
Параметр Endianness формата : Big
Идентификатор кодека : A_AC3
Продолжительность : 1 ч. 35 м.
Вид битрейта : Постоянный
Битрейт : 192 Кбит/сек
Каналы : 2 канала
Расположение каналов : Front: L R
Частота : 48,0 КГц
Частота кадров : 31,250 кадров/сек (1536 spf)
Метод сжатия : С потерями
Размер потока : 131 Мбайт (1%)
Заголовок : AVO Горчаков Василий Овидиевич
Язык : Russian
Default : Нет
Forced : Нет

Аудио #3
Идентификатор : 4
Формат : AC-3
Формат/Информация : Audio Coding 3
Расширение режима : CM (complete main)
Параметр Endianness формата : Big
Идентификатор кодека : A_AC3
Продолжительность : 1 ч. 35 м.
Вид битрейта : Постоянный
Битрейт : 448 Кбит/сек
Каналы : 6 каналов
Расположение каналов : Front: L C R, Side: L R, LFE
Частота : 48,0 КГц
Частота кадров : 31,250 кадров/сек (1536 spf)
Метод сжатия : С потерями
Размер потока : 305 Мбайт (3%)
Заголовок : AVO Котов Вячеслав Олегович (mupoxa)
Язык : Russian
Default : Нет
Forced : Нет

Аудио #4
Идентификатор : 5
Формат : DTS
Формат/Информация : Digital Theater Systems
Режим : 16
Параметр Endianness формата : Big
Идентификатор кодека : A_DTS
Продолжительность : 1 ч. 35 м.
Вид битрейта : Постоянный
Битрейт : 1509 Кбит/сек
Каналы : 6 каналов
Расположение каналов : Front: L C R, Side: L R, LFE
Частота : 48,0 КГц
Частота кадров : 93,750 кадра/сек (512 spf)
Битовая глубина : 24 бит
Метод сжатия : С потерями
Размер потока : 1,00 Гбайт (11%)
Язык : English
Default : Нет
Forced : Нет

Текст
Идентификатор : 6
Формат : UTF-8
Идентификатор кодека : S_TEXT/UTF8
Идентификатор кодека/Информация : UTF-8 Plain Text
Язык : English
Default : Нет
Forced : Нет

Меню
00:00:00.000 : en:Chapter 01
00:05:10.935 : en:Chapter 02
00:08:33.179 : en:Chapter 03
00:11:39.573 : en:Chapter 04
00:15:59.708 : en:Chapter 05
00:19:41.138 : en:Chapter 06
00:23:26.655 : en:Chapter 07
00:27:51.252 : en:Chapter 08
00:30:54.102 : en:Chapter 09
00:35:59.907 : en:Chapter 10
00:39:07.678 : en:Chapter 11
00:42:54.113 : en:Chapter 12
00:46:38.712 : en:Chapter 13
00:50:44.166 : en:Chapter 14
00:56:09.741 : en:Chapter 15
01:01:09.499 : en:Chapter 16
01:05:58.287 : en:Chapter 17
01:08:00.117 : en:Chapter 18
01:11:13.477 : en:Chapter 19
01:15:00.662 : en:Chapter 20
01:19:43.945 : en:Chapter 21
01:22:54.678 : en:Chapter 22
01:26:58.630 : en:Chapter 23
01:30:21.332 : en:Chapter 24

 

Вложения

  • 48,6 KB Просмотры: 0
    Личеров 0
    Сидеров 0
    Файлов 1
    Объем 9,5 GB
Ваш e-mail не будет опубликован. Он потребуется для подтверждения Вашего поста.
Оформление текста Нажмите «Ввод», чтобы отправить ответ.

Привет!

Мы группа людей которые решили помочь другим в решении их проблем, а так же пользователям с поиском самых свежих и качественных инфопродуктов. За 4 с небольшим месяца мы создали этот форум на который заходят ежедневно тысячи человек и посещаемость постоянно растёт. Мы создали панель лицензирования для защиты PHP скриптов от воровства и SEO панель для мониторинга наших сайтов и выбора верной стратегии их развития. Мы надеемся что то что мы создали пригодится Вам и возможно Вы поможете нам развиваться и совершенствоваться вместе с Вами.

Статистика форума

Темы
378.665
Сообщения
417.746
Пользователи
49.109
Новый пользователь
dmitriylex118

Приложения форума для iOS и Android


У ркн там нет власти ;)
Приватные разговоры
Помощь Пользователи
    Вы не присоединились ни к одной комнате.