За последнюю неделю опубликовано 30 новых материалов.
Инструкция новичку Путеводитель по форуму Прокси для Telegram Показать подсказки , это бомба!

Скачать 72 метра (2004) WEBRip-AVC от KORSAR | Киноверсия бесплатно через торрент

  • Поучаствуй (в качестве покупателя) в любых пяти совместных покупках (кроме завершённых и "Моментальных") и получи группу "Новичок" навсегда -> ссылка на раздел
  • Получай до 480 рублей за каждого приглашенного пользователя!
    представляем Вам очередное расширение партнерской программы, подробности описаны тут -> ссылка
  • 90% материалов доступно к скачиванию после простой регистрации!
    Если же ты хочешь скачивать материалы без требования оставлять отзывы то получи группу "Новичок", 10 способов повышения описаны тут -> ссылка
  • К сожалению количество битых ссылок растет и мы уже не можем их оперативно восстанавливать поэтому просим помощи у каждого нашего пользователя.
    С сегодняшнего дня, за каждую восстановленную ссылку мы заплатим Вам.
    Подробнее тут -> ссылка
  • Перенесем твои заслуги с другого ресурса!
    Мы понимаем как сложно прокачивать аккаунты на форумах, вроде раскачал аккаунт, а тут появляется ресурс в 100 раз круче но тоже с системой прокачки и снова качать аккаунт...
    Предлагаем вам перенести Ваши заслуги на другом подобном ресурсе к нам.
    Подробности описаны тут -> ссылка
  • Вы можете получать по 2.5% с каждой покупки и продажи на маркете! Подробности в теме Партнёрская программа
Если Вы не хотите скачивать, Вы всегда можетепосмотретьонлайн, просто нажмите кнопку ниже :

Открыть плеер

Torrent_Bot

Торрент-Бот
Бот форума
4 Окт 2016
93
155
20
Жанр: Катастрофа, Драма
Год выпуска: 2004
Продолжительность: 01:57:13
Режиссёр: Владимир Хотиненко
Сценарий: Валерий Залотуха, Александр Покровский
Композитор: Эннио Морриконе
В ролях: Сергей Маковецкий, Сергей Гармаш, Владислав Галкин, Игорь Ливанов, Марат Башаров, Андрей Краско, Чулпан Хаматова, Дмитрий Ульянов, Станислав Никольский, Артем Михалков

Описание: Рассказ «72 метра», повествующий о гибели подводной лодки, был написан Александром Покровским задолго до того, как произошла трагедия «Курска». Это не пророчество и не совпадение, а, к сожалению, логика вещей. Самые суперсовременные самолеты падали и будут время от времени падать. Самые надежные корабли и подводные лодки тонули и, увы, еще будут тонуть. Но речь не об этом. Бывает так, что в критической ситуации люди, считавшиеся слабыми, становятся сильными, а те, кто казался твёрдыми, как скала, смертельно слабеют. Но все вместе они - герои. Эта история не о том, что надежда умирает последней, а о том, что она не умирает никогда…




Кодек: х264
Качество: WEBRip-AVC
Видео: MPEG-4 AVC, 1046x576, 25 fps, 5356 Кбит/с
Звук: AC3, 6 ch, 448 Кбит/с

Скриншоты

Инфо файл

  • x264 [info]: frame I:1212 Avg QP:17.63 size:110708
    x264 [info]: frame P:36767 Avg QP:18.99 size: 59220
    x264 [info]: frame B:137870 Avg QP:21.23 size: 18150
    x264 [info]: consecutive B-frames: 1.3% 1.9% 4.5% 20.3% 25.5% 45.3% 1.1% 0.2% 0.0%
Общее
Уникальный идентификатор : 175543418280049715741128394243131121601 (0x84106EBD998FE13483E11E46A35D1FC1)
Полное имя : D:72 метра_2004-WEBRip-AVC_KORSAR.mkv
Формат : Matroska
Версия формата : Version 2
Размер файла : 4,85 Гбайт
Продолжительность : 1 ч. 57 м.
Общий поток : 5921 Кбит/сек
Дата кодирования : UTC 2018-07-05 19:07:23
Программа кодирования : mkvmerge v5.8.0 ('No Sleep / Pillow') built on Sep 2 2012 15:37:04
Библиотека кодирования : libebml v1.2.3 + libmatroska v1.3.0

Видео
Идентификатор : 1
Формат : AVC
Формат/Информация : Advanced Video Codec
Профиль формата : High@L4.1
Параметр CABAC формата : Да
Параметр RefFrames формата : 13 кадров
Идентификатор кодека : V_MPEG4/ISO/AVC
Продолжительность : 1 ч. 57 м.
Битрейт : 5356 Кбит/сек
Ширина : 1046 пикселей
Высота : 576 пикселей
Соотношение сторон : 16:9
Режим частоты кадров : Постоянный
Частота кадров : 25,000 кадров/сек
Цветовое пространство : YUV
Субдискретизация насыщенности : 4:2:0
Битовая глубина : 8 бит
Тип развёртки : Прогрессивная
Бит/(Пиксели*Кадры) : 0.356
Размер потока : 4,39 Гбайт (90%)
Библиотека кодирования : x264 core 152 r2851kMod ba24899
Настройки программы : cabac=1 / ref=13 / deblock=1:-2:-1 / analyse=0x3:0x113 / me=umh / subme=10 / psy=1 / fade_compensate=0.00 / psy_rd=1.05:0.10 / mixed_ref=1 / me_range=40 / chroma_me=1 / trellis=2 / 8x8dct=1 / cqm=0 / deadzone=21,11 / fast_pskip=1 / chroma_qp_offset=-3 / threads=12 / lookahead_threads=2 / sliced_threads=0 / nr=0 / decimate=1 / interlaced=0 / bluray_compat=0 / constrained_intra=0 / bframes=8 / b_pyramid=2 / b_adapt=2 / b_bias=0 / direct=1 / weightb=1 / open_gop=0 / weightp=2 / keyint=250 / keyint_min=25 / scenecut=40 / intra_refresh=0 / rc=crf / mbtree=0 / crf=18.2000 / qcomp=0.63 / qpmin=0 / qpmax=39 / qpstep=4 / ip_ratio=1.40 / pb_ratio=1.30 / aq=2:0.80
Язык : English
Default : Да
Forced : Нет
Цветовой диапазон : Limited
Основные цвета : BT.709
Характеристики трансфера : BT.709
Коэффициенты матрицы : BT.709

Аудио
Идентификатор : 2
Формат : AC-3
Формат/Информация : Audio Coding 3
Параметр Endianness формата : Big
Идентификатор кодека : A_AC3
Продолжительность : 1 ч. 57 м.
Вид битрейта : Постоянный
Битрейт : 448 Кбит/сек
Каналы : 6 каналов
Расположение каналов : Front: L C R, Side: L R, LFE
Частота : 48,0 КГц
Частота кадров : 31,250 кадров/сек (1536 SPF)
Битовая глубина : 16 бит
Метод сжатия : С потерями
Задержка видео : 5 с. 480 мс.
Размер потока : 376 Мбайт (8%)
Язык : Russian
Default : Да
Forced : Нет

Меню
00:00:00.000 : en:Chapter 1
00:00:26.800 : en:Chapter 2
00:02:32.800 : en:Chapter 3
00:03:02.800 : en:Chapter 4
00:05:03.400 : en:Chapter 5
00:05:29.080 : en:Chapter 6
00:07:42.760 : en:Chapter 7
00:07:46.480 : en:Chapter 8
00:07:47.920 : en:Chapter 9
00:07:54.040 : en:Chapter 10
00:07:55.840 : en:Chapter 11
00:07:59.200 : en:Chapter 12
00:11:33.280 : en:Chapter 13
00:16:25.360 : en:Chapter 14
00:16:29.200 : en:Chapter 15
00:16:32.080 : en:Chapter 16
00:16:34.960 : en:Chapter 17
00:16:38.320 : en:Chapter 18
00:17:26.560 : en:Chapter 19
00:17:29.440 : en:Chapter 20
00:17:32.800 : en:Chapter 21
00:18:28.600 : en:Chapter 22
00:19:13.960 : en:Chapter 23
00:23:00.160 : en:Chapter 24
00:24:15.520 : en:Chapter 25
00:24:39.400 : en:Chapter 26
00:24:40.840 : en:Chapter 27
00:24:44.440 : en:Chapter 28
00:24:49.360 : en:Chapter 29
00:25:23.080 : en:Chapter 30
00:25:26.440 : en:Chapter 31
00:25:30.280 : en:Chapter 32
00:25:33.040 : en:Chapter 33
00:27:05.680 : en:Chapter 34
00:31:06.280 : en:Chapter 35
00:33:59.320 : en:Chapter 36
00:35:25.600 : en:Chapter 37
00:39:54.520 : en:Chapter 38
00:40:06.160 : en:Chapter 39
00:40:08.560 : en:Chapter 40
00:40:10.840 : en:Chapter 41
00:40:15.520 : en:Chapter 42
00:40:20.080 : en:Chapter 43
00:40:22.720 : en:Chapter 44
00:43:43.720 : en:Chapter 45
00:43:47.080 : en:Chapter 46
00:43:49.840 : en:Chapter 47
00:46:18.760 : en:Chapter 48
00:48:22.360 : en:Chapter 49
00:51:15.160 : en:Chapter 50
00:56:45.880 : en:Chapter 51
01:02:31.720 : en:Chapter 52
01:02:57.160 : en:Chapter 53
01:08:58.840 : en:Chapter 54
01:13:02.080 : en:Chapter 55
01:15:59.560 : en:Chapter 56
01:21:27.640 : en:Chapter 57
01:21:36.520 : en:Chapter 58
01:26:31.840 : en:Chapter 59
01:28:54.760 : en:Chapter 60
01:31:36.160 : en:Chapter 61
01:31:39.880 : en:Chapter 62
01:31:43.600 : en:Chapter 63
01:31:46.600 : en:Chapter 64
01:31:48.400 : en:Chapter 65
01:31:52.720 : en:Chapter 66
01:35:05.680 : en:Chapter 67
01:39:36.400 : en:Chapter 68
01:39:55.000 : en:Chapter 69
01:40:06.520 : en:Chapter 70
01:44:39.040 : en:Chapter 71
01:47:19.720 : en:Chapter 72
01:48:36.040 : en:Chapter 73
01:54:07.600 : en:Chapter 74
01:57:13.360 : en:Chapter 75
 

Вложения

  • 25,2 KB Просмотры: 1
    Личеров 0
    Сидеров 0
    Файлов 1
    Объем 4,8 GB

Привет!

Мы группа людей которые решили помочь другим в решении их проблем, а так же пользователям с поиском самых свежих и качественных инфопродуктов. За 4 с небольшим месяца мы создали этот форум на который заходят ежедневно тысячи человек и посещаемость постоянно растёт. Мы создали панель лицензирования для защиты PHP скриптов от воровства и SEO панель для мониторинга наших сайтов и выбора верной стратегии их развития. Мы надеемся что то что мы создали пригодится Вам и возможно Вы поможете нам развиваться и совершенствоваться вместе с Вами.

Статистика форума

Темы
406.541
Сообщения
464.666
Пользователи
83.321
Новый пользователь
TigreAs

Приложения форума для iOS и Android


У ркн там нет власти ;)
Приватные разговоры
Помощь Пользователи
    Вы не присоединились ни к одной комнате.