За последнюю неделю опубликовано 114 новых материалов.
Инструкция новичку Путеводитель по форуму Прокси для Telegram Показать подсказки , это бомба!

Скачать 72 часа (2015) HDTVRip от GeneralFilm бесплатно через торрент

  • Поучаствуй (в качестве покупателя) в любых пяти совместных покупках (кроме завершённых и "Моментальных") и получи группу "Новичок" навсегда -> ссылка на раздел
  • Получай до 480 рублей за каждого приглашенного пользователя!
    представляем Вам очередное расширение партнерской программы, подробности описаны тут -> ссылка
  • 90% материалов доступно к скачиванию после простой регистрации!
    Если же ты хочешь скачивать материалы без требования оставлять отзывы то получи группу "Новичок", 10 способов повышения описаны тут -> ссылка
  • К сожалению количество битых ссылок растет и мы уже не можем их оперативно восстанавливать поэтому просим помощи у каждого нашего пользователя.
    С сегодняшнего дня, за каждую восстановленную ссылку мы заплатим Вам.
    Подробнее тут -> ссылка
  • Перенесем твои заслуги с другого ресурса!
    Мы понимаем как сложно прокачивать аккаунты на форумах, вроде раскачал аккаунт, а тут появляется ресурс в 100 раз круче но тоже с системой прокачки и снова качать аккаунт...
    Предлагаем вам перенести Ваши заслуги на другом подобном ресурсе к нам.
    Подробности описаны тут -> ссылка
  • Вы можете получать по 2.5% с каждой покупки и продажи на маркете! Подробности в теме Партнёрская программа
Если Вы не хотите скачивать, Вы всегда можетепосмотретьонлайн, просто нажмите кнопку ниже :

Открыть плеер

Torrent_Bot

Торрент-Бот
Бот форума
4 Окт 2016
123
108
20



Год выпуска: 2015
Жанр:Военный, драма
Выпущено: Россия, Киностудия Соль, Продюсерская компания Николая Расторгуева
Режиссер: Кира Ангелина
В ролях: Елизавета Арзамасова, Митя Лабуш, Ирина Розанова, Александр Зельский, Алексей Шевченков, Анатолий Гущин, Татьяна Лютаева, Артур Псакин, Дмитрий Подадаев, Фёдор Леонов, Анастасия Королькова, Николай Сахаров, Александр Касаткин (II), Татьяна Чепелевич, Наталья Третьякова

О фильме: В самом начале Великой Отечественной войны крохотный городок Ставрово оказывается в эпицентре большой истории. Его расположение, близость линии фронта, железная дорога, перекресток нескольких дорог привели в город крупный гарнизон немцев. Но в городе действует подполье, состоящее, в основном, из вчерашних школьников. Это история противостояния двух молодых людей, двух жизненных позиций — комсомольца Алексея и предателя Дмитрия. Оба молоды, оба читали одни и те же книжки в детстве, учились в одной школе, любили одну девушку. Но первый, не задумываясь, отдал жизнь за то, что считал священным — за Родину, а второй самозабвенно мучил и убивал своих же соотечественников, соседей, знакомых, бывших одноклассников.




Качество: HDTVRip
Видео: XviD, 1760 Кбит/с, 720х304, 25 кадр/с
Аудио: Русский (AC3, 2 ch, 192 Кбит/с)
Продолжительность: 01:39:39
Перевод: Не требуется
Субтитры: нет

Скриншоты

MediaInfo
Общее
Полное имя : D:72 chasa.HDTVRip.GeneralFilm.avi
Формат : AVI
Формат/Информация : Audio Video Interleave
Размер файла : 1,37 Гбайт
Продолжительность : 1 ч. 39 м.
Общий поток : 1962 Кбит/сек
Программа кодирования : VirtualDubMod 1.5.10.3 | www.virtualdub-fr.org || (build 2550/release)
Библиотека кодирования : VirtualDubMod build 2550/release

Видео
Идентификатор : 0
Формат : MPEG-4 Visual
Профиль формата : Advanced Simple@L5
Параметр BVOP формата : 1
Параметр QPel формата : Нет
Параметр GMC формата : Без точки перехода
Параметр матрицы формата : Выборочная
Идентификатор кодека : XVID
Идентификатор кодека/Подсказка : XviD
Продолжительность : 1 ч. 39 м.
Битрейт : 1760 Кбит/сек
Ширина : 720 пикселей
Высота : 304 пикселя
Соотношение сторон : 2,35:1
Частота кадров : 25,000 кадров/сек
Цветовое пространство : YUV
Субдискретизация насыщенности : 4:2:0
Битовая глубина : 8 бит
Тип развёртки : Прогрессивная
Метод сжатия : С потерями
Бит/(Пиксели*Кадры) : 0.322
Размер потока : 1,22 Гбайт (90%)
Библиотека кодирования : XviD 1.2.1 (UTC 2008-12-04)

Аудио
Идентификатор : 1
Формат : AC-3
Формат/Информация : Audio Coding 3
Расширение режима : CM (complete main)
Параметр Endianness формата : Big
Идентификатор кодека : 2000
Продолжительность : 1 ч. 39 м.
Вид битрейта : Постоянный
Битрейт : 192 Кбит/сек
Каналы : 2 канала
Расположение каналов : Front: L R
Частота : 48,0 КГц
Частота кадров : 31,250 кадров/сек (1536 spf)
Битовая глубина : 16 бит
Метод сжатия : С потерями
Размер потока : 137 Мбайт (10%)
Выравнивание : Разделение по промежуткам
Продолжительность промежутка : 40 мс. (1,00 видеокадр)
Время предзагрузки промежутка : 500 мс.

Релиз:
 

Вложения

  • 14,6 KB Просмотры: 1
    Личеров 0
    Сидеров 0
    Файлов 1
    Объем 1,4 GB

Привет!

Мы группа людей которые решили помочь другим в решении их проблем, а так же пользователям с поиском самых свежих и качественных инфопродуктов. За 4 с небольшим месяца мы создали этот форум на который заходят ежедневно тысячи человек и посещаемость постоянно растёт. Мы создали панель лицензирования для защиты PHP скриптов от воровства и SEO панель для мониторинга наших сайтов и выбора верной стратегии их развития. Мы надеемся что то что мы создали пригодится Вам и возможно Вы поможете нам развиваться и совершенствоваться вместе с Вами.

Статистика форума

Темы
384.674
Сообщения
427.802
Пользователи
58.936
Новый пользователь
undo

Приложения форума для iOS и Android


У ркн там нет власти ;)
Приватные разговоры
Помощь Пользователи
    Вы не присоединились ни к одной комнате.