За последнюю неделю опубликовано 72 новых материалов.
Инструкция новичку Путеводитель по форуму Прокси для Telegram Показать подсказки , это бомба!

Скачать 72 часа (2015) HDTVRip 720p от GeneralFilm бесплатно через торрент

  • Поучаствуй (в качестве покупателя) в любых пяти совместных покупках (кроме завершённых и "Моментальных") и получи группу "Новичок" навсегда -> ссылка на раздел
  • Получай до 480 рублей за каждого приглашенного пользователя!
    представляем Вам очередное расширение партнерской программы, подробности описаны тут -> ссылка
  • 90% материалов доступно к скачиванию после простой регистрации!
    Если же ты хочешь скачивать материалы без требования оставлять отзывы то получи группу "Новичок", 10 способов повышения описаны тут -> ссылка
  • К сожалению количество битых ссылок растет и мы уже не можем их оперативно восстанавливать поэтому просим помощи у каждого нашего пользователя.
    С сегодняшнего дня, за каждую восстановленную ссылку мы заплатим Вам.
    Подробнее тут -> ссылка
  • Перенесем твои заслуги с другого ресурса!
    Мы понимаем как сложно прокачивать аккаунты на форумах, вроде раскачал аккаунт, а тут появляется ресурс в 100 раз круче но тоже с системой прокачки и снова качать аккаунт...
    Предлагаем вам перенести Ваши заслуги на другом подобном ресурсе к нам.
    Подробности описаны тут -> ссылка
  • Вы можете получать по 2.5% с каждой покупки и продажи на маркете! Подробности в теме Партнёрская программа
Если Вы не хотите скачивать, Вы всегда можетепосмотретьонлайн, просто нажмите кнопку ниже :

Открыть плеер

Torrent_Bot

Торрент-Бот
Бот форума
4 Окт 2016
122
116
20



Год выпуска: 2015
Жанр:Военный, драма
Выпущено: Россия, Киностудия Соль, Продюсерская компания Николая Расторгуева
Режиссер: Кира Ангелина
В ролях: Елизавета Арзамасова, Митя Лабуш, Ирина Розанова, Александр Зельский, Алексей Шевченков, Анатолий Гущин, Татьяна Лютаева, Артур Псакин, Дмитрий Подадаев, Фёдор Леонов, Анастасия Королькова, Николай Сахаров, Александр Касаткин (II), Татьяна Чепелевич, Наталья Третьякова

О фильме: В самом начале Великой Отечественной войны крохотный городок Ставрово оказывается в эпицентре большой истории. Его расположение, близость линии фронта, железная дорога, перекресток нескольких дорог привели в город крупный гарнизон немцев. Но в городе действует подполье, состоящее, в основном, из вчерашних школьников. Это история противостояния двух молодых людей, двух жизненных позиций — комсомольца Алексея и предателя Дмитрия. Оба молоды, оба читали одни и те же книжки в детстве, учились в одной школе, любили одну девушку. Но первый, не задумываясь, отдал жизнь за то, что считал священным — за Родину, а второй самозабвенно мучил и убивал своих же соотечественников, соседей, знакомых, бывших одноклассников.




Качество: HDTVRip (720p)
Видео: MPEG-4 AVC, ~ 3500 Кбит/с, 1280x536, 25 fps
Аудио: Русский (AC3, 2 ch, 192 Кбит/с)
Продолжительность: 01:39:39
Перевод: Не требуется
Субтитры: нет

Скриншоты

MediaInfo
Общее
Уникальный идентификатор : 171234034363785350282141523394860428262 (0x80D279B5A5522814B6CBEC2C09F82BE6)
Полное имя : D:72 chasa.HDTVRip.(720p).GeneralFilm.mkv
Формат : Matroska
Версия формата : Version 2
Размер файла : 2,57 Гбайт
Продолжительность : 1 ч. 39 м.
Общий поток : 3694 Кбит/сек
Дата кодирования : UTC 2019-06-22 21:25:48
Программа кодирования : mkvmerge v7.8.0 ('River Man') 32bit built on Apr 3 2015 12:11:22
Библиотека кодирования : libebml v1.3.1 + libmatroska v1.4.2

Видео
Идентификатор : 1
Формат : AVC
Формат/Информация : Advanced Video Codec
Профиль формата : [email protected]
Параметр CABAC формата : Да
Параметр ReFrames формата : 9 кадров
Идентификатор кодека : V_MPEG4/ISO/AVC
Продолжительность : 1 ч. 39 м.
Битрейт : 3500 Кбит/сек
Ширина : 1280 пикселей
Высота : 536 пикселей
Соотношение сторон : 2,40:1
Режим частоты кадров : Постоянный
Частота кадров : 25,000 кадров/сек
Цветовое пространство : YUV
Субдискретизация насыщенности : 4:2:0
Битовая глубина : 8 бит
Тип развёртки : Прогрессивная
Бит/(Пиксели*Кадры) : 0.204
Размер потока : 2,39 Гбайт (93%)
Библиотека кодирования : x264 core 146 r2538 121396c
Настройки программы : cabac=1 / ref=9 / deblock=1:-2:-1 / analyse=0x3:0x113 / me=umh / subme=9 / psy=1 / psy_rd=1.00:0.15 / mixed_ref=1 / me_range=32 / chroma_me=1 / trellis=2 / 8x8dct=1 / cqm=0 / deadzone=21,11 / fast_pskip=0 / chroma_qp_offset=-3 / threads=18 / lookahead_threads=3 / sliced_threads=0 / nr=0 / decimate=1 / interlaced=0 / bluray_compat=0 / constrained_intra=0 / bframes=9 / b_pyramid=2 / b_adapt=2 / b_bias=0 / direct=1 / weightb=1 / open_gop=0 / weightp=2 / keyint=250 / keyint_min=25 / scenecut=40 / intra_refresh=0 / rc_lookahead=40 / rc=2pass / mbtree=0 / bitrate=3500 / ratetol=1.0 / qcomp=0.60 / qpmin=0 / qpmax=69 / qpstep=4 / cplxblur=20.0 / qblur=0.5 / vbv_maxrate=14000 / vbv_bufsize=14000 / nal_hrd=none / filler=0 / ip_ratio=1.40 / pb_ratio=1.30 / aq=2:1.00
Default : Да
Forced : Нет
Цветовой диапазон : Limited
Основные цвета : BT.709
Характеристики трансфера : BT.709
Коэффициенты матрицы : BT.709

Аудио
Идентификатор : 2
Формат : AC-3
Формат/Информация : Audio Coding 3
Расширение режима : CM (complete main)
Параметр Endianness формата : Big
Идентификатор кодека : A_AC3
Продолжительность : 1 ч. 39 м.
Вид битрейта : Постоянный
Битрейт : 192 Кбит/сек
Каналы : 2 канала
Расположение каналов : Front: L R
Частота : 48,0 КГц
Частота кадров : 31,250 кадров/сек (1536 spf)
Битовая глубина : 16 бит
Метод сжатия : С потерями
Размер потока : 137 Мбайт (5%)
Default : Да
Forced : Нет

Релиз:
 

Вложения

  • 13,8 KB Просмотры: 1
    Личеров 0
    Сидеров 0
    Файлов 1
    Объем 2,6 GB

Привет!

Мы группа людей которые решили помочь другим в решении их проблем, а так же пользователям с поиском самых свежих и качественных инфопродуктов. За 4 с небольшим месяца мы создали этот форум на который заходят ежедневно тысячи человек и посещаемость постоянно растёт. Мы создали панель лицензирования для защиты PHP скриптов от воровства и SEO панель для мониторинга наших сайтов и выбора верной стратегии их развития. Мы надеемся что то что мы создали пригодится Вам и возможно Вы поможете нам развиваться и совершенствоваться вместе с Вами.

Статистика форума

Темы
385.185
Сообщения
430.742
Пользователи
63.533
Новый пользователь
Iddqd

Приложения форума для iOS и Android


У ркн там нет власти ;)
Приватные разговоры
Помощь Пользователи
    Вы не присоединились ни к одной комнате.