За последнюю неделю опубликовано 63 новых материалов.
Инструкция новичку Путеводитель по форуму Прокси для Telegram Показать подсказки , это бомба!

Скачать 7 хранителей гробницы / 7 Guardians of the Tomb (2018) WEB-DLRip-AVC от MediaBit | HDRezka Studio бесплатно через торрент

  • Поучаствуй (в качестве покупателя) в любых пяти совместных покупках (кроме завершённых и "Моментальных") и получи группу "Новичок" навсегда -> ссылка на раздел
  • Получай до 480 рублей за каждого приглашенного пользователя!
    представляем Вам очередное расширение партнерской программы, подробности описаны тут -> ссылка
  • 90% материалов доступно к скачиванию после простой регистрации!
    Если же ты хочешь скачивать материалы без требования оставлять отзывы то получи группу "Новичок", 10 способов повышения описаны тут -> ссылка
  • К сожалению количество битых ссылок растет и мы уже не можем их оперативно восстанавливать поэтому просим помощи у каждого нашего пользователя.
    С сегодняшнего дня, за каждую восстановленную ссылку мы заплатим Вам.
    Подробнее тут -> ссылка
  • Перенесем твои заслуги с другого ресурса!
    Мы понимаем как сложно прокачивать аккаунты на форумах, вроде раскачал аккаунт, а тут появляется ресурс в 100 раз круче но тоже с системой прокачки и снова качать аккаунт...
    Предлагаем вам перенести Ваши заслуги на другом подобном ресурсе к нам.
    Подробности описаны тут -> ссылка
  • Вы можете получать по 2.5% с каждой покупки и продажи на маркете! Подробности в теме Партнёрская программа
Если Вы не хотите скачивать, Вы всегда можетепосмотретьонлайн, просто нажмите кнопку ниже :

Открыть плеер

Torrent_Bot

Торрент-Бот
Бот форума
4 Окт 2016
92
160
20



Информация о фильме
Название: 7 хранителей гробницы
Оригинальное название: 7 Guardians of the Tomb
Год выхода: 2018
Жанр: Приключения, ужасы, боевик
Режиссер: Кимбл Рендалл
В ролях: Бинбин Ли, Келлан Латс, У Чунь, Келси Грэммер, Стэф Доусон, Ясмин Кассим, Тим Драксл, Шэйн Джейкобсон, Райан Джонсон (II), Джейсон Чонг, Чэнь Цюаньхуа, Гленн Чоу, Уоррен Ли, Кристин Мило

О фильме:
Многие археологи мечтают разгадать какую-нибудь тайну, спрятанную в древних загадочных пещерах. Джиа и ее младший брат Люк еще в раннем детстве остались сиротами. Их родители попали в ужасную авиакатастрофу, но их тела так и не были найдены. Спустя много лет Люк, руководящий компанией погибших родителей, падает в одну пещеру. На его поиски отправляется спасательная экспедиция, в состав которой входит и Джиа. Они прибывают в пустыню, но песчаная буря мешает им начать поиски сразу. Когда погода успокаивается, они продолжают свою миссию. Вскоре они находят несколько трупов животных, который внутри оказываются совершенно пустыми. Через некоторое время из-за газа раздается мощный взрыв, после чего группа вынуждена запереться в незнакомом доме, в котором уже кто-то есть...



Страна: Китай, Австралия, Россия, Таиланд
Студия: Nest Holdings, Sleeping Otters Productions
Продолжительность: 01:30:29
Перевод: Профессиональный многоголосый | HDRezka Studio

Файл
Кодек: MPEG-4 AVC
Качество: WEB-DLRip-AVC
Видео: 2148 Кбит/с, 1024x430, 23.976 Кадр/с
Звук:
Аудио #1: Русский - AC3, 6 ch, 448 Кбит/с
Аудио #2: Английский - AC3, 6 ch, 448 Кбит/с
Субтитры: Русские, английские, испанские

Семпл

MI
General
Unique ID : 74673709044775898175507866856742372146 (0x382DA21B69904A6102046AA506EEC332)
Complete name : D:2020 рипыПоезд смерти7.hraniteley.grobnitsi.2018.x264.WEB-DLRip(AVC)-MediaBit.mkv
Format : Matroska
Format version : Version 4 / Version 2
File size : 1.93 GiB
Duration : 1 h 30 min
Overall bit rate : 3 046 kb/s
Movie name : 7 хранителей гробницы (2018)
Encoded date : UTC 2020-05-25 08:44:47
Writing application : mkvmerge v25.0.0 ('Prog Noir') 64-bit
Writing library : libebml v1.3.6 + libmatroska v1.4.9 / Lavf58.20.100
ENCODING_INFO : MATROSKA,WEBM > MKV

Video
ID : 1
Format : AVC
Format/Info : Advanced Video Codec
Format profile : [email protected]
Format settings : CABAC / 10 Ref Frames
Format settings, CABAC : Yes
Format settings, ReFrames : 10 frames
Codec ID : V_MPEG4/ISO/AVC
Duration : 1 h 30 min
Bit rate : 2 148 kb/s
Width : 1 024 pixels
Height : 430 pixels
Display aspect ratio : 2.40:1
Frame rate mode : Constant
Frame rate : 23.976 (24000/1001) FPS
Color space : YUV
Chroma subsampling : 4:2:0
Bit depth : 8 bits
Scan type : Progressive
Bits/(Pixel*Frame) : 0.203
Stream size : 1.36 GiB (71%)
Title : MediaBit
Writing library : x264 core 157 r2958 57baac4
Encoding settings : cabac=1 / ref=10 / deblock=1:-3:-3 / analyse=0x3:0x133 / me=umh / subme=9 / psy=1 / psy_rd=1.00:0.15 / mixed_ref=1 / me_range=48 / chroma_me=1 / trellis=1 / 8x8dct=1 / cqm=0 / deadzone=21,11 / fast_pskip=1 / chroma_qp_offset=-3 / threads=6 / lookahead_threads=1 / sliced_threads=0 / nr=0 / decimate=1 / interlaced=0 / bluray_compat=0 / constrained_intra=0 / bframes=10 / b_pyramid=2 / b_adapt=2 / b_bias=10 / direct=3 / weightb=1 / open_gop=0 / weightp=2 / keyint=240 / keyint_min=24 / scenecut=23 / intra_refresh=0 / rc_lookahead=240 / rc=2pass / mbtree=1 / bitrate=2148 / ratetol=1.0 / qcomp=0.60 / qpmin=0 / qpmax=69 / qpstep=4 / cplxblur=20.0 / qblur=0.5 / ip_ratio=1.40 / aq=1:1.00
Language : English
Default : Yes
Forced : No
Color range : Limited
Color primaries : BT.709
Transfer characteristics : BT.709
Matrix coefficients : BT.709
ENCODING_INFO : H264 > X264 VBR-2P 2148kbps HQ

Audio #1
ID : 2
Format : AC-3
Format/Info : Audio Coding 3
Codec ID : A_AC3
Duration : 1 h 30 min
Bit rate mode : Constant
Bit rate : 448 kb/s
Channel(s) : 6 channels
Channel positions : Front: L C R, Side: L R, LFE
Sampling rate : 48.0 kHz
Frame rate : 31.250 FPS (1536 SPF)
Bit depth : 16 bits
Compression mode : Lossy
Stream size : 290 MiB (15%)
Title : MVO | HDRezka Studio
Language : Russian
Service kind : Complete Main
Default : Yes
Forced : No
ENCODING_INFO : AC3 > AC3 CBR 448kbps

Audio #2
ID : 3
Format : AC-3
Format/Info : Audio Coding 3
Codec ID : A_AC3
Duration : 1 h 30 min
Bit rate mode : Constant
Bit rate : 448 kb/s
Channel(s) : 6 channels
Channel positions : Front: L C R, Side: L R, LFE
Sampling rate : 48.0 kHz
Frame rate : 31.250 FPS (1536 SPF)
Bit depth : 16 bits
Compression mode : Lossy
Stream size : 290 MiB (15%)
Language : English
Service kind : Complete Main
Default : No
Forced : No
ENCODING_INFO : AC3 > AC3 CBR 448kbps

Text #1
ID : 4
Format : UTF-8
Codec ID : S_TEXT/UTF8
Codec ID/Info : UTF-8 Plain Text
Duration : 1 h 20 min
Bit rate : 0 b/s
Count of elements : 9
Stream size : 533 Bytes (0%)
Title : Forced
Language : Russian
Default : Yes
Forced : No
ENCODING_INFO : SUBRIP > COPY Быстрое

Text #2
ID : 5
Format : UTF-8
Codec ID : S_TEXT/UTF8
Codec ID/Info : UTF-8 Plain Text
Duration : 1 h 20 min
Bit rate : 42 b/s
Count of elements : 951
Stream size : 25.2 KiB (0%)
Language : English
Default : No
Forced : No
ENCODING_INFO : SUBRIP > COPY Быстрое

Text #3
ID : 6
Format : UTF-8
Codec ID : S_TEXT/UTF8
Codec ID/Info : UTF-8 Plain Text
Duration : 1 h 20 min
Bit rate : 51 b/s
Count of elements : 998
Stream size : 30.4 KiB (0%)
Language : Spanish
Default : No
Forced : No
ENCODING_INFO : SUBRIP > COPY Быстрое

Menu
00:00:00.000 : :Chapter 1
00:09:49.672 : :Chapter 2
00:19:50.397 : :Chapter 3
00:30:26.449 : :Chapter 4
00:41:27.735 : :Chapter 5
00:51:29.377 : :Chapter 6
01:02:05.596 : :Chapter 7
01:10:19.048 : :Chapter 8
01:23:23.206 : :Chapter 9
Скриншоты

Релиз от:
 

Вложения

  • 22,5 KB Просмотры: 0
    Личеров 0
    Сидеров 0
    Файлов 1
    Объем 1,9 GB

Привет!

Мы группа людей которые решили помочь другим в решении их проблем, а так же пользователям с поиском самых свежих и качественных инфопродуктов. За 4 с небольшим месяца мы создали этот форум на который заходят ежедневно тысячи человек и посещаемость постоянно растёт. Мы создали панель лицензирования для защиты PHP скриптов от воровства и SEO панель для мониторинга наших сайтов и выбора верной стратегии их развития. Мы надеемся что то что мы создали пригодится Вам и возможно Вы поможете нам развиваться и совершенствоваться вместе с Вами.

Статистика форума

Темы
406.656
Сообщения
465.106
Пользователи
84.674
Новый пользователь
Юрий 1990

Приложения форума для iOS и Android


У ркн там нет власти ;)
Приватные разговоры
Помощь Пользователи
    Вы не присоединились ни к одной комнате.